[bittorrent] gd68-10-08.sbd.belaff.17691.shnf

Automated Mailer noreply-bt.e at etree.org
Wed Jan 13 12:17:32 MST 2010


Band:           Grateful Dead
Torrent Name:   gd68-10-08.sbd.belaff.17691.shnf
Uploaded by:    SteveSw
DB Link:        http://db.etree.org/shn/17691
Details:        http://bt.etree.org/details.php?id=531533

Contact the seeder at http://db.etree.org/SteveSw

If the link to this show does not work, it was probably removed for
being non-trade-friendly.

Description / text file:
-------------------------
BAND Grateful Dead
VENUE The Matrix
CITY San Francisco
STATE CA
DATE 10/08/68

SBD MR->Reel (x2?)->CDR    

Disc 1: (73:47)
SET1
1. [05:32] Clementine Jam   
2. [15:32] Clementine Jam > 
3. [07:23] The Eleven Jam > 
4. [09:49] Death Don't Have No Mercy  
5. [19:04] The Seven  
6. [12:00] Dark Star Jam > 
7. [04:21] Cosmic Charlie

Disc 2: (47:55)
SET2 
1. [17:26] Next Time You See Me Jam
2. [09:20] Jam  
3. [13:47] The Other One > 
4. [07:19] Jam

Disc3: (55:23)
SET3 (1) 
1. [06:46] Jam  
2. [07:35] Jam  
3. [07:17] Jam  
4. [13:06] Prisoner Blues  
5. [20:35] Jam (2)

COMMENTS show billed as "Mickey and the Heartbeats".  Bobby and Pigpen
were absent.
        
(1) all of third set with Elvin Bishop.      
(2) Jack Casady, Hart, and Bishop only.
        
Mucho thanks to Glenn Gillis for this incredible show!!!

Extracted with EAC using correct offsets and
converted to SHN on 3/17/03
Evan Bellaff: ebellaff at aol.com


    length     expanded size    cdr  WAVE problems  fmt   ratio  filename
     5:32.74       58738892 B   ---   --   ---xx    shn  0.4017  gd68-10-08d1t01.shn
    15:32.74      164578892 B   ---   --   ---xx    shn  0.4896  gd68-10-08d1t02.shn
     7:23.74       78319292 B   ---   --   ---xx    shn  0.5292  gd68-10-08d1t03.shn
     9:49.74      104073692 B   ---   --   ---xx    shn  0.4361  gd68-10-08d1t04.shn
    19:04.74      201975692 B   ---   --   ---xx    shn  0.4819  gd68-10-08d1t05.shn
    12:00.74      127182092 B   ---   --   ---xx    shn  0.4295  gd68-10-08d1t06.shn
     4:21.39       46132172 B   ---   --   ---xx    shn  0.5348  gd68-10-08d1t07.shn
    17:26.74      184688492 B   ---   --   ---xx    shn  0.5245  gd68-10-08d2t01.shn
     9:20.74       98958092 B   ---   --   ---xx    shn  0.4535  gd68-10-08d2t02.shn
    13:47.74      146056892 B   ---   --   ---xx    shn  0.4560  gd68-10-08d2t03.shn
     7:19.59       77578412 B   ---   --   ---xx    shn  0.4738  gd68-10-08d2t04.shn
     6:46.74       71792492 B   ---   --   ---xx    shn  0.4435  gd68-10-08d3t01.shn
     7:35.74       80436092 B   ---   --   ---xx    shn  0.5261  gd68-10-08d3t02.shn
     7:17.74       77260892 B   ---   --   ---xx    shn  0.5331  gd68-10-08d3t03.shn
    13:06.74      138824492 B   ---   --   ---xx    shn  0.4115  gd68-10-08d3t04.shn
    20:35.39      217945772 B   ---   --   ---xx    shn  0.4487  gd68-10-08d3t05.shn
   177:06.49     1874542352 B                            0.4710  (16 files)



More information about the bittorrent mailing list