[bittorrent] gd68-10-08.sbd.gasperini.hanno.25757.flac16

Automated Mailer noreply-bt.e at etree.org
Wed Jan 13 12:17:26 MST 2010


Band:           Grateful Dead
Torrent Name:   gd68-10-08.sbd.gasperini.hanno.25757.flac16
Uploaded by:    SteveSw
DB Link:        http://db.etree.org/shn/25757
Details:        http://bt.etree.org/details.php?id=531532

Contact the seeder at http://db.etree.org/SteveSw

If the link to this show does not work, it was probably removed for
being non-trade-friendly.

Description / text file:
-------------------------
Mickey & The Hartbeats
October 8, 1968
San Francisco - The Matrix

*** This seed includes only disc 1. The other discs were left untouched.
*** http://db.etree.org/shn/17691 is the optimal seed for discs 2 & 3 (for now...)



This seed fixes the problems with disc 1 of the previous seeds.
Marcello Gasperini's DAT tape -supplied by Jens Tilsner- was used as the primary source.
http://db.etree.org/shn/17691 supplied patches to a few problems on the Gasperini DAT.

For what it's worth, the Gasperini DAT seems to be a different transfer from one and the same reel source.
There is a reel stop/start that is not present on #17691.

Thanks to the contributors, and enjoy the result!

CD 1 (74:12)
01 [05:29] Clementine Jam ("... amplifier isn't working now ...")
02 [13:35] Clementine Jam > 
03 [09:21] The Eleven Jam > 
04 [11:04] Death Don't Have No Mercy  
05 [17:25] The Seven  
06 [12:54] Dark Star Jam > 
07 [04:21] Cosmic Charlie


Hanno Bunjes
September 2004


    length     expanded size    cdr  WAVE problems  fmt   ratio  filename
     5:29.03       58042700 B   ---   --   ---xx   flac  0.3536  gd68-10-08d1t01.flac
    13:35.58      143902460 B   ---   --   ---xx   flac  0.4068  gd68-10-08d1t02.flac
     9:21.72       99129788 B   ---   --   ---xx   flac  0.4644  gd68-10-08d1t03.flac
    11:04.03      117136700 B   ---   --   ---xx   flac  0.3769  gd68-10-08d1t04.flac
    17:25.07      184354508 B   ---   --   ---xx   flac  0.4292  gd68-10-08d1t05.flac
    12:54.50      136651244 B   ---   --   ---xx   flac  0.3944  gd68-10-08d1t06.flac
     4:21.50       46158020 B   -b-   --   ---xx   flac  0.4500  gd68-10-08d1t07.flac
    74:12.18      785375420 B                            0.4113  (7 files)



More information about the bittorrent mailing list