[bittorrent] Grateful Dead - 1983-10-21 The Centrum - Worcester, MA *Matrix*

Automated Mailer noreply-bt.e at etree.org
Mon Jan 11 23:23:42 MST 2010


Band:           Grateful Dead
Torrent Name:   Grateful Dead - 1983-10-21 The Centrum - Worcester, MA *Matrix*
Uploaded by:    hseamons
DB Link:        http://db.etree.org/shn/105419
Details:        http://bt.etree.org/details.php?id=531494

Contact the seeder at http://db.etree.org/hseamons

If the link to this show does not work, it was probably removed for
being non-trade-friendly.

Description / text file:
-------------------------
Grateful Dead
The Centrum
Worcester, MA
October 21, 1983

Jerry Garcia - Lead Guitar, Vocals
Mickey Hart - Drums
Bill Kreutzmann - Drums
Phil Lesh - Electric Bass, Vocals
Brent Mydland - Keyboards, Vocals
Bob Weir - Rhythm Guitar, Vocals



*Matrix*


-----------------------------------------------------------------
SBD (shnid=24998):

Bertha Remaster of the digital soundboard source.
 
SBD>>PCM>>Dat>>CDR>>SHN>>DAW(Bertha)>>CDA/SHN - Sound A

Digitally remastered using a custom built, Dual-DAW, nicknamed Bertha, by jashley at deadacated.com.  Completed on June 30, 2004.

-----------------------------------------------------------------
AUD (shnid=16909):

Source: FOB (2nd row) Sennheiser 441's > Technics PCM master > DAT
Transfer:  DAT > ZA2 > SoundForge > SHN

Taper: Jeff Silberman

[shnid=28888, by Doug Mow and Alex Ford, provides Johnny B. Goode]

[4/19/03]

-----------------------------------------------------------------
Thank you to Jay Ashley for the SBD transfer,
and to Jeff Silberman for recording the show.

Matrix by Hunter Seamons using Final Cut Pro & Soundtrack Pro
(SHN>AIFF>Final Cut & Soundtrack>WAV>FLAC) 
January 10, 2010

 

Set I
-----
d1t01 - The Music Never Stopped
d1t02 - Loser 
d1t03 - C.C. Rider
d1t04 - Cumberland Blues
d1t05 - Cassidy
d1t06 - Ramble on Rose
d1t07 - My Brother Esau
d1t08 - Big Railroad Blues ->
d1t09 - Promised Land

Set II
-----
d2t01 - Scarlet Begonias ->
d2t02 - Fire on the Mountain
d2t03 - Uncle John's Band ->
d2t04 - Playing in the Band ->
d2t05 - Drums ->
d3t01 - Space ->
d3t02 - Truckin' ->
d3t03 - Wharf Rat ->
d3t04 - I Need a Miracle ->
d3t05 - Touch of Grey

Encore
------
d3t06 - Johnny B. Goode



Notes:

1) There are instances of light static, digi-noise, some hiccups, and occasional clicks in both sources (which are not that distracting, and mostly noticeable during quiet parts), as well as momentary cuts.



    length     expanded size    cdr  WAVE problems  fmt   ratio  filename
    11:28.44      121466732 B   ---   --   ---xx  gd83-10-21d1t01.flac
     8:32.01       90319196 B   ---   --   ---xx  gd83-10-21d1t02.flac
     9:01.73       95604140 B   ---   --   ---xx  gd83-10-21d1t03.flac
     9:09.28       96909500 B   ---   --   ---xx  gd83-10-21d1t04.flac
     7:59.59       84634412 B   ---   --   ---xx  gd83-10-21d1t05.flac
     7:54.03       83620700 B   ---   --   ---xx  gd83-10-21d1t06.flac
     5:18.39       56186972 B   ---   --   ---xx  gd83-10-21d1t07.flac
     7:36.67       80596028 B   ---   --   ---xx  gd83-10-21d1t08.flac
     4:44.31       50170556 B   ---   --   ---xx  gd83-10-21d1t09.flac
    13:11.14      139565372 B   ---   --   ---xx  gd83-10-21d2t01.flac
    19:32.70      206905484 B   ---   --   ---xx  gd83-10-21d2t02.flac
     8:24.18       88947980 B   ---   --   ---xx  gd83-10-21d2t03.flac
    11:27.42      121285628 B   ---   --   ---xx  gd83-10-21d2t04.flac
     9:12.41       97469276 B   ---   --   ---xx  gd83-10-21d2t05.flac
    15:07.38      160084220 B   ---   --   ---xx  gd83-10-21d3t01.flac
     7:56.18       84008780 B   ---   --   ---xx  gd83-10-21d3t02.flac
     9:56.40      105228524 B   ---   --   ---xx  gd83-10-21d3t03.flac
     3:33.14       37606172 B   ---   --   ---xx  gd83-10-21d3t04.flac
     6:13.65       65950124 B   ---   --   ---xx  gd83-10-21d3t05.flac
     4:09.12       43951868 B   ---   --   ---xx  gd83-10-21d3t06.flac
   180:30.42     1910511664 B                            0.5739  (20 files)



More information about the bittorrent mailing list