[bittorrent] gd74-06-20.sbd.clugston.2179.shnf -- PREFERRED TO REMASTER

Automated Mailer noreply-bt.e at etree.org
Mon Jan 11 11:13:41 MST 2010


Band:           Grateful Dead
Torrent Name:   gd74-06-20.sbd.clugston.2179.shnf -- PREFERRED TO REMASTER
Uploaded by:    SteveSw
DB Link:        
Details:        http://bt.etree.org/details.php?id=531478

Contact the seeder at http://db.etree.org/SteveSw

If the link to this show does not work, it was probably removed for
being non-trade-friendly.

Description / text file:
-------------------------
6/20/74
The Omni
Atlanta, GA

Master 7 inch, 2 track Soundboard Reel > Cassette > DAT > CDR

uploaded 10/00 by Scott Clugston
made possible by the usual group of suspects/mental patients

disc 1 requires an 80 minute disc

   Disc 1
   1st Set
1. US Blues
2. BIODTL
3. BEW
4. Mexicali
5. IMHBTR
6. Jack Straw
7. Scarlet Begonias
8. Me & My Uncle
9. To Lay Me Down
10.El Paso
11.China Cat>
12.IKYR
13.A & A

   Disc 2
   2nd Set
1. Big River
2. Ship of Fools
3. Truckin'>
4. Space>
5. Ey//es>
6. Slipknot Jam>
7. China Doll>
8. OMSN


SHNTOOL LEN
    length     expanded size    cdr  WAVE problems  fmt   ratio  filename
     5:51.62       62062268 B   ---   --   ---xx    shn  0.6187  gd74-6-20d1t01.shn
     4:36.43       48787580 B   ---   --   ---xx    shn  0.5624  gd74-6-20d1t02.shn
     5:04.73       53797340 B   ---   --   ---xx    shn  0.5448  gd74-6-20d1t03.shn
     3:50.06       40586156 B   ---   --   ---xx    shn  0.5924  gd74-6-20d1t04.shn
     8:13.41       87061676 B   ---   --   ---xx    shn  0.4957  gd74-6-20d1t05.shn
     5:50.54       61867052 B   ---   --   ---xx    shn  0.5487  gd74-6-20d1t06.shn
     6:53.18       72895580 B   ---   --   ---xx    shn  0.5971  gd74-6-20d1t07.shn
     3:00.01       31754396 B   ---   --   ---xx    shn  0.5949  gd74-6-20d1t08.shn
     8:01.15       84883724 B   ---   --   ---xx    shn  0.5003  gd74-6-20d1t09.shn
     4:36.36       48771116 B   ---   --   ---xx    shn  0.5843  gd74-6-20d1t10.shn
    10:28.44      110882732 B   ---   --   ---xx    shn  0.6174  gd74-6-20d1t11.shn
     5:02.37       53359868 B   ---   --   ---xx    shn  0.5924  gd74-6-20d1t12.shn
     5:12.05       55048604 B   ---   --   ---xx    shn  0.6364  gd74-6-20d1t13.shn
     5:24.45       57259484 B   ---   --   ---xx    shn  0.5799  gd74-6-20d2t01.shn
     6:38.57       70341308 B   ---   --   ---xx    shn  0.5651  gd74-6-20d2t02.shn
    13:39.73      144643340 B   ---   --   ---xx    shn  0.6116  gd74-6-20d2t03.shn
     7:58.50       84436844 B   ---   --   ---xx    shn  0.5896  gd74-6-20d2t04.shn
    16:22.43      173325980 B   ---   --   ---xx    shn  0.5864  gd74-6-20d2t05.shn
     4:26.11       46948316 B   ---   --   ---xx    shn  0.6316  gd74-6-20d2t06.shn
     6:48.21       72020636 B   ---   --   ---xx    shn  0.5712  gd74-6-20d2t07.shn
     5:18.26       56156396 B   ---   --   ---xx    shn  0.6019  gd74-6-20d2t08.shn
   143:19.11     1516890396 B                            0.5816  (21 files)



More information about the bittorrent mailing list