[bittorrent] Gavin DeGraw Anderson Arena Bowling Green, Ohio 1/10/2010 (Schoeps CCM4V'S FOB)

Automated Mailer noreply-bt.e at etree.org
Mon Jan 11 10:30:23 MST 2010


Band:           Other
Torrent Name:   Gavin DeGraw Anderson Arena Bowling Green, Ohio 1/10/2010 (Schoeps CCM4V'S FOB)
Uploaded by:    zmanatl
DB Link:        
Details:        http://bt.etree.org/details.php?id=531476

Contact the seeder at http://db.etree.org/zmanatl

If the link to this show does not work, it was probably removed for
being non-trade-friendly.

Description / text file:
-------------------------
Gavin DeGraw
BGSU Centennial Kick Off Concert
Anderson Arena
Bowling Green State University
Bowling Green, Ohio
1/10/2010

Source: Schoeps CCM4V'S(din)>Lunatec V2>Benchmark AD2K>
Sound Devices 722 (24/48)
Location: FOB/DFC/KFC/ZFC/AARP Behind 27th Row in Soudboard Area, 7' High
DSP: Sound Devices 722>Sound Forge 9.0>CD Wave>flac(16)
Recorded By: Z-Man
Seeded By: Z-Man

Disc I 

01 I Have You To Thank
02 (Nice To Meet You) Anyway
03 Follow Through
04 Never The Same 
05 Love Is The Reason
06 Mistake 
07 Untamed
08 Free 

Disc II 

01 Cop Stop
02 I'm In Love With Lovin' You Baby 
03 We Belong Together
04 Lover Be Strong >
05 Cupid
06 In Love With A Girl
Encore:
07 I Don't Want To Be 
 
Flac Fingerprint 

gavindegraw2010-01-10d01t01.flac:29cd9ab07ee9d57fe9bc25874530dc69
gavindegraw2010-01-10d01t02.flac:4e00253ed050fe762349f19d8edd8027
gavindegraw2010-01-10d01t03.flac:5eb8e8095866838619adc82efa4cfd94
gavindegraw2010-01-10d01t04.flac:8cb351700b1cf5721628950f247a7ce4
gavindegraw2010-01-10d01t05.flac:2c916f158c52a9c8e4afd1ecc64cae28
gavindegraw2010-01-10d01t06.flac:515656eedf960b9a1af937f751ebaa60
gavindegraw2010-01-10d01t07.flac:eb0204c51ad0db1169354caffdc876cd
gavindegraw2010-01-10d01t08.flac:c7c0962b5b4ac02bc5689d7970fc4c9b
gavindegraw2010-01-10d02t01.flac:7c6bedabd33ecc5265fa32fa655aa367
gavindegraw2010-01-10d02t02.flac:65881725436c17ae776f0831ba2e51a6
gavindegraw2010-01-10d02t03.flac:29b4f364abbfdbd9a201fe4618f99349
gavindegraw2010-01-10d02t04.flac:ad729977254843d44f5662b1cf6fc3ba
gavindegraw2010-01-10d02t05.flac:30af7d0d4e5301fd9a168bbc8753bd33
gavindegraw2010-01-10d02t06.flac:c42034f8c47535c8d9595f5ed28a79d3
gavindegraw2010-01-10d02t07.flac:f78b6c6a4d6aa057eb055b3986386401

Shntool 

    length     expanded size    cdr  WAVE problems  fmt   ratio  filename
     6:39.23       70437740 B   ---   --   ---xx   flac  0.5124  gavindegraw2010-01-10d01t01.flac
     4:58.47       52677788 B   ---   --   ---xx   flac  0.4625  gavindegraw2010-01-10d01t02.flac
     4:39.31       49288556 B   ---   --   ---xx   flac  0.4843  gavindegraw2010-01-10d01t03.flac
     4:50.72       51325388 B   ---   --   ---xx   flac  0.4928  gavindegraw2010-01-10d01t04.flac
     3:36.33       38180060 B   ---   --   ---xx   flac  0.4538  gavindegraw2010-01-10d01t05.flac
     4:06.19       43439132 B   ---   --   ---xx   flac  0.4956  gavindegraw2010-01-10d01t06.flac
     7:13.02       76385948 B   ---   --   ---xx   flac  0.4434  gavindegraw2010-01-10d01t07.flac
     6:09.04       65101052 B   ---   --   ---xx   flac  0.3994  gavindegraw2010-01-10d01t08.flac
     4:04.48       43154540 B   ---   --   ---xx   flac  0.4625  gavindegraw2010-01-10d02t01.flac
     1:09.73       12343340 B   ---   --   ---xx   flac  0.2798  gavindegraw2010-01-10d02t02.flac
     7:06.36       75231116 B   ---   --   ---xx   flac  0.4120  gavindegraw2010-01-10d02t03.flac
     5:27.48       57795740 B   ---   --   ---xx   flac  0.4754  gavindegraw2010-01-10d02t04.flac
     9:11.38       97285820 B   ---   --   ---xx   flac  0.4459  gavindegraw2010-01-10d02t05.flac
     7:40.55       81273404 B   ---   --   ---xx   flac  0.5071  gavindegraw2010-01-10d02t06.flac
     6:58.19       73779932 B   ---   --   ---xx   flac  0.4979  gavindegraw2010-01-10d02t07.flac
    83:52.23      887699556 B                            0.4636  (15 files)


 





More information about the bittorrent mailing list