[bittorrent] Red Wanting Blue Anderson Arena Bowling Green, Ohio 1/10/2010 (Schoeps CCM4V'S FOB)

Automated Mailer noreply-bt.e at etree.org
Mon Jan 11 10:25:30 MST 2010


Band:           Other
Torrent Name:   Red Wanting Blue Anderson Arena Bowling Green, Ohio 1/10/2010 (Schoeps CCM4V'S FOB)
Uploaded by:    zmanatl
DB Link:        
Details:        http://bt.etree.org/details.php?id=531475

Contact the seeder at http://db.etree.org/zmanatl

If the link to this show does not work, it was probably removed for
being non-trade-friendly.

Description / text file:
-------------------------
Red Wanting Blue - Acoustic
BGSU Centennial Kick Off Concert
Anderson Arena
Bowling Green State University
Bowling Green, Ohio
1/10/2010

Source: Schoeps CCM4V'S(din)>Lunatec V2>Benchmark AD2K>
Sound Devices 722 (24/48)
Location: FOB/DFC/KFC/ZFC/AARP Behind 27th Row in Soudboard Area, 7' High
DSP: Sound Devices 722>Sound Forge 9.0>CD Wave>flac(16)
Recorded By: Z-Man
Seeded By: Z-Man

Disc I 

01 Gladly Do This Song Again
02 Where You Want To Go >
03 You Are My Las Vegas
04 Cut Me Down To Size
05 Red Rider

Flac Fingerprint 

redwantingblue2010-01-10d01t01.flac:a790965dcb141ef0144bef1791c64cb9
redwantingblue2010-01-10d01t02.flac:140800edde90d16357a017a9a9e0e1d5
redwantingblue2010-01-10d01t03.flac:418da42f8daaa2996696cd3d76d328d9
redwantingblue2010-01-10d01t04.flac:c444f0ff6f3cad446729866363f17fa4
redwantingblue2010-01-10d01t05.flac:3ce6033bd780ca82638714ee5035923c

Shntool 

    length     expanded size    cdr  WAVE problems  fmt   ratio  filename
     5:19.70       56436284 B   ---   --   ---xx   flac  0.4864  redwantingblue2010-01-10d01t01.flac
     4:02.13       42719420 B   ---   --   ---xx   flac  0.4862  redwantingblue2010-01-10d01t02.flac
     5:14.32       55464908 B   ---   --   ---xx   flac  0.5082  redwantingblue2010-01-10d01t03.flac
     4:37.71       49029836 B   ---   --   ---xx   flac  0.4733  redwantingblue2010-01-10d01t04.flac
     6:14.65       66126524 B   ---   --   ---xx   flac  0.4967  redwantingblue2010-01-10d01t05.flac
    25:29.26      269776972 B                            0.4910  (5 files)










More information about the bittorrent mailing list