[bittorrent] jg1975-10-11.mtx.menke.motb.0113.105413.flac16 New MOTB!!!

Automated Mailer noreply-bt.e at etree.org
Sun Jan 10 19:01:17 MST 2010


Band:           Garcia
Torrent Name:   jg1975-10-11.mtx.menke.motb.0113.105413.flac16  New MOTB!!!
Uploaded by:    jthomas0237
DB Link:        http://db.etree.org/shninfo_detail.php?shnid=105413
Details:        http://bt.etree.org/details.php?id=531460

Contact the seeder at http://db.etree.org/jthomas0237

If the link to this show does not work, it was probably removed for
being non-trade-friendly.

Description / text file:
-------------------------
MOTB Release: 0113 16/44.1
Release Date: 2010-01-05
Band: Jerry Garcia Band
Date: 1975-10-11 (Saturday)
Venue: Keystone
Location: Berkeley, CA
Analog Audience Source: FOB Master Cassettes (MAC)
Medium Stock Brands: MAC = 2 x Maxell UD C90
Analog Lineage: Sony ECM 250 & ECM 270 >> Sony TC 152SD >> MAC
Analog Sound Preservation: MAC >> Nakamichi CR7a => Korg MR-1000 >> DSF [1-bit 5.6448 MHz Stereo] >> Korg MR-1000 => Korg AudioGate >> WAV [24/96]
Matrix Soundboard Source: jg1975-10-11.jgb.sbd.minches.31213.flac16
Taped By: Bob Menke and Louis Falenga
Transfer By: Bob Menke
Mastering By: Derek McCabe


Set 1:
d1t01: All By Myself*
d1t02: Catfish John*
d1t03: That's What Love Will Make You Do*
d1t04: //It's Too Late
d1t05: Teddy Bear's Picnic
d1t06: Pig's Boogie
d1t07: Crazy Arms
d1t08: Night They Drove Old Dixie Down
d1t09: (I'm A) Road Runner

Set 2:
d2t01: Let It Rock
d2t02: Tore Up Over You
d2t03: Mission In The Rain
d2t04: Lady Sleeps >
d2t05: No Time
d2t06: Mystery Train
~encore~
d2t07: tuning
d2t08: Edward

Note: * SBD (shn id 31213) provided first 3 tracks of set 1 and 20 sec gap in Mystery Train

      Aud Recorded off monitor and stage


shntool 3.0.4
Copyright (C) 2000-2007 Jason Jordan <shnutils at freeshell.org>

    length     expanded size    cdr  WAVE problems  fmt   ratio  filename
    12:55.48      136822940 B   ---   --   ---xx   flac  0.5022  jg1975-10-11.jgb.mtx.menke.motb.d1t01.flac
    13:27.47      142465388 B   ---   --   ---xx   flac  0.5126  jg1975-10-11.jgb.mtx.menke.motb.d1t02.flac
    11:37.16      122988476 B   ---   --   ---xx   flac  0.5177  jg1975-10-11.jgb.mtx.menke.motb.d1t03.flac
     8:03.59       85340012 B   ---   --   ---xx   flac  0.5106  jg1975-10-11.jgb.mtx.menke.motb.d1t04.flac
     4:24.50       46687244 B   ---   --   ---xx   flac  0.4474  jg1975-10-11.jgb.mtx.menke.motb.d1t05.flac
     8:35.18       90888380 B   ---   --   ---xx   flac  0.5492  jg1975-10-11.jgb.mtx.menke.motb.d1t06.flac
     7:48.00       82555244 B   ---   --   ---xx   flac  0.5047  jg1975-10-11.jgb.mtx.menke.motb.d1t07.flac
    11:47.36      124799516 B   ---   --   ---xx   flac  0.4961  jg1975-10-11.jgb.mtx.menke.motb.d1t08.flac
    10:50.06      114674156 B   ---   --   ---xx   flac  0.5644  jg1975-10-11.jgb.mtx.menke.motb.d1t09.flac
    14:37.34      154782812 B   ---   --   ---xx   flac  0.4968  jg1975-10-11.jgb.mtx.menke.motb.d2t01.flac
     8:28.49       89726492 B   ---   --   ---xx   flac  0.5579  jg1975-10-11.jgb.mtx.menke.motb.d2t02.flac
     7:27.16       78888476 B   ---   --   ---xx   flac  0.4895  jg1975-10-11.jgb.mtx.menke.motb.d2t03.flac
     4:52.44       51612332 B   ---   --   ---xx   flac  0.4245  jg1975-10-11.jgb.mtx.menke.motb.d2t04.flac
     5:32.55       58694204 B   ---   --   ---xx   flac  0.4528  jg1975-10-11.jgb.mtx.menke.motb.d2t05.flac
    12:44.05      134781404 B   ---   --   ---xx   flac  0.5453  jg1975-10-11.jgb.mtx.menke.motb.s2t06.flac
     3:40.10       38831564 B   ---   --   ---xx   flac  0.4397  jg1975-10-11.jgb.mtx.menke.motb.s2t07.flac
     9:09.71       97010636 B   ---   --   ---xx   flac  0.5634  jg1975-10-11.jgb.mtx.menke.motb.s2t08.flac
   156:02.39     1651549276 B                            0.5131  (17 files)




More information about the bittorrent mailing list