[bittorrent] Ratdog 07-14-06

Automated Mailer noreply-bt.e at etree.org
Sun Jan 10 15:21:35 MST 2010


Band:           Ratdog
Torrent Name:   Ratdog 07-14-06
Uploaded by:    jmaneval
DB Link:        http://db.etree.org/shninfo_detail.php?shnid=75795
Details:        http://bt.etree.org/details.php?id=531454

Contact the seeder at http://db.etree.org/jmaneval

If the link to this show does not work, it was probably removed for
being non-trade-friendly.

Description / text file:
-------------------------
 Ratdog
 07/14/2006 
 Radio City Music Hall
 New York, NY 

 Source: Neumann SKM 184s (din 90*/20cm) > Lunatec V3 (44.1) Optical Mod > JB3 (16/44.1)
 Location: B O B -DFC / Row N - Seat 409 @ 9 feet high
 Lineage: JB3 > USB > Creative PlayCenter > CD Wave Editor > CDR > EAC* > WinXP Pro > Trader's Little Helper > FLAC16. 

 Recorded, transferred and tracked by Larry - FLDEADHEAD 
 Sector boundaries verified with TLH, files encoded @ level 6
 *EAC(no errors) through FLAC16 by Alex Ford on 07/19/06.


 Disc 01:

 01. Intro
 02. crowd
 03. Jam > 
 04. Casey Jones, 
 05. New Minglewood Blues > 
 06. She Belongs To Me, 
 07. Brown-Eyed Women, 
 08. Crazy Fingers, 
 09. Big Iron@, 
 10. Victim Or The Crime@,

 Disc 02:
 
 01. Interlude >
 02. Uncle John's Band > 
 03. The Other One > 
 04. Stuff > 
 05. Jam > Sugaree > 
 06. Throwing Stones > 
 07. Liberty* 
 Encore: 
 08. Black Muddy River*+ 


 Notes:

 - *w/ The Persuasions
 - + a capella



 Shntool Output:

 length	     expanded size	   cdr  WAVE problems filename
 0:47.50	        8408444	    ---   --   -----   rd2006-07-14.fldeadhead-d1t01.wav
 0:56.04	        9887852	    ---   --   -----   rd2006-07-14.fldeadhead-d1t02.wav
 2:28.39	       26198972	    ---   --   -----   rd2006-07-14.fldeadhead-d1t03.wav
 5:34.59	       59056412	    ---   --   -----   rd2006-07-14.fldeadhead-d1t04.wav
 9:00.49	       95371292	    ---   --   -----   rd2006-07-14.fldeadhead-d1t05.wav
 6:46.30	       71689004	    ---   --   -----   rd2006-07-14.fldeadhead-d1t06.wav
 5:36.61	       59413916	    ---   --   -----   rd2006-07-14.fldeadhead-d1t07.wav
10:16.10	      108685964	    ---   --   -----   rd2006-07-14.fldeadhead-d1t08.wav
 6:17.68	       66662780	    ---   --   -----   rd2006-07-14.fldeadhead-d1t09.wav
 9:09.58	       96980060	    ---   --   -----   rd2006-07-14.fldeadhead-d1t10.wav
 1:14.66	       13208876	    ---   --   -----   rd2006-07-14.fldeadhead-d2t01.wav
11:02.23 	     116830940	    ---   --   -----   rd2006-07-14.fldeadhead-d2t02.wav
10:31.09	      111329612	    ---   --   -----   rd2006-07-14.fldeadhead-d2t03.wav
  6:27.01	       68269196	    ---   --   -----   rd2006-07-14.fldeadhead-d2t04.wav
15:31.67 	     164386028	    ---   --   -----   rd2006-07-14.fldeadhead-d2t05.wav
10:02.04	      106202252	    ---   --   -----   rd2006-07-14.fldeadhead-d2t06.wav
  6:27.27	       68330348	    ---   --   -----   rd2006-07-14.fldeadhead-d2t07.wav
  5:45.29       60926252	    ---   --   -----   rd2006-07-14.fldeadhead-d2t08.wav
123:56.54     1311838200 B	                     (totals for 18 files, 1.0000 overall compression ratio)




More information about the bittorrent mailing list