[bittorrent] Four Finger Five Blind Pig Ann Arbor, Michigan 1/7/2010

Automated Mailer noreply-bt.e at etree.org
Fri Jan 8 10:42:28 MST 2010


Band:           Other
Torrent Name:   Four Finger Five Blind Pig Ann Arbor, Michigan 1/7/2010
Uploaded by:    zmanatl
DB Link:        
Details:        http://bt.etree.org/details.php?id=531391

Contact the seeder at http://db.etree.org/zmanatl

If the link to this show does not work, it was probably removed for
being non-trade-friendly.

Description / text file:
-------------------------
Four Finger Five
Blind Pig 
Ann Arbor, Michigan
1/7/2010

Source: Schoeps CCM4V'S(din)>Lunatec V2>Benchmark AD2K>
Sound Devices 722 (24/48)
Location: FOB/DFC/KFC/ZFC/AARP 24' From Stage, 6 1/2' High
DSP: Sound Devices 722>Sound Forge 9.0>CD Wave>flac(16)
Recorded By: Z-Man
Seeded By: Z-Man

Disc I

01 How The Streets
02 Giving It All Away
03 Know Your Face
04 I Don't Need No Doctor 
05 Broken
06 On The Ladder
07 ?
08 Might Decline
09 Feel For You >
10 Mannic Depression
11 She's Gone
12 Makes You A Man
13 Choose To Remain

Flac Fingerprint 

fourfingerfive2010-01-07d01t01.flac:227b9c6664c33e5ce1edd59372f6d670
fourfingerfive2010-01-07d01t02.flac:b874a2f406dfd7351cfe54775c7c8650
fourfingerfive2010-01-07d01t03.flac:ce7e331febe782d6c5ec559e97345a61
fourfingerfive2010-01-07d01t04.flac:959ec225a6cdf4baae80ae757a3588dd
fourfingerfive2010-01-07d01t05.flac:30b0a7655bb6d0077041090c83a26a2f
fourfingerfive2010-01-07d01t06.flac:6bd1feaaea585071fe66434cd31308a7
fourfingerfive2010-01-07d01t07.flac:21506c9e73bf9b3bac6eb585400a3c97
fourfingerfive2010-01-07d01t08.flac:af734875384ac2093a1987355fd008f3
fourfingerfive2010-01-07d01t09.flac:7ff7f2d5a482daa311fb509d04cbc3cc
fourfingerfive2010-01-07d01t10.flac:1babe0086770dc19d50c2f7db580e0c0
fourfingerfive2010-01-07d01t11.flac:05120304ae953282c320075f6dea5ccf
fourfingerfive2010-01-07d01t12.flac:dd31e67f2a0c8842300d7d1ef634c9e1
fourfingerfive2010-01-07d01t13.flac:1adf0db9d41de6d0c12debd0620f4c5c
  
Shntool 

    length     expanded size    cdr  WAVE problems  fmt   ratio  filename
     3:54.24       41334092 B   ---   --   ---xx   flac  0.5038  fourfingerfive2010-01-07d01t01.flac
     3:47.28       40108700 B   ---   --   ---xx   flac  0.5062  fourfingerfive2010-01-07d01t02.flac
     2:53.29       30585452 B   ---   --   ---xx   flac  0.5330  fourfingerfive2010-01-07d01t03.flac
     6:56.39       73474172 B   ---   --   ---xx   flac  0.4608  fourfingerfive2010-01-07d01t04.flac
     4:32.24       48037292 B   ---   --   ---xx   flac  0.5150  fourfingerfive2010-01-07d01t05.flac
     4:05.44       43321532 B   ---   --   ---xx   flac  0.4390  fourfingerfive2010-01-07d01t06.flac
     6:44.12       71293868 B   ---   --   ---xx   flac  0.5200  fourfingerfive2010-01-07d01t07.flac
     8:15.65       87470924 B   ---   --   ---xx   flac  0.4560  fourfingerfive2010-01-07d01t08.flac
     4:05.22       43269788 B   ---   --   ---xx   flac  0.5404  fourfingerfive2010-01-07d01t09.flac
     4:37.31       48935756 B   ---   --   ---xx   flac  0.5409  fourfingerfive2010-01-07d01t10.flac
     3:04.45       32563484 B   ---   --   ---xx   flac  0.5128  fourfingerfive2010-01-07d01t11.flac
     8:15.24       87374492 B   ---   --   ---xx   flac  0.4882  fourfingerfive2010-01-07d01t12.flac
    14:33.68      154157180 B   ---   --   ---xx   flac  0.4812  fourfingerfive2010-01-07d01t13.flac
    75:46.05      801926732 B                            0.4931  (13 files)







More information about the bittorrent mailing list