[bittorrent] Ultraviolet Hippopotamus Blind Pig Ann Arbor, Michigan 1/7/2010

Automated Mailer noreply-bt.e at etree.org
Fri Jan 8 10:40:33 MST 2010


Band:           Other
Torrent Name:   Ultraviolet Hippopotamus Blind Pig Ann Arbor, Michigan 1/7/2010
Uploaded by:    zmanatl
DB Link:        
Details:        http://bt.etree.org/details.php?id=531390

Contact the seeder at http://db.etree.org/zmanatl

If the link to this show does not work, it was probably removed for
being non-trade-friendly.

Description / text file:
-------------------------
Ultraviolet Hippopotamus
Blind Pig 
Ann Arbor, Michigan
1/7/2010

Source: Schoeps CCM4V'S(din)>Lunatec V2>Benchmark AD2K>
Sound Devices 722 (24/48)
Location: FOB/DFC/KFC/ZFC/AARP 24' From Stage, 6 1/2' High
DSP: Sound Devices 722>Sound Forge 9.0>CD Wave>flac(16)
Recorded By: Z-Man
Seeded By: Z-Man

Disc I

01 Medicine
02 B'Guzzla
03 Giants
04 Dave's New Tune - Energy?
05 The Scar
06 The Marine

Flac Fingerprint 

uvhippo2010-01-07d01t01.flac:f9c8dd7e88cb7aaeab032e485f611875
uvhippo2010-01-07d01t02.flac:855977cbd0b5df451489025244e6e695
uvhippo2010-01-07d01t03.flac:b1818e68223ff7949ca0ee23e462d790
uvhippo2010-01-07d01t04.flac:0a84c772e9901d0f9548c829a5d0de9e
uvhippo2010-01-07d01t05.flac:fcb0c9cd87c51b4b643bcf219122073a
uvhippo2010-01-07d01t06.flac:49db43d98b2678bef700dbec9e111ba6

Shntool 

    length     expanded size    cdr  WAVE problems  fmt   ratio  filename
    12:51.61      136147916 B   ---   --   ---xx   flac  0.4994  uvhippo2010-01-07d01t01.flac
    11:03.26      117014396 B   ---   --   ---xx   flac  0.4952  uvhippo2010-01-07d01t02.flac
     6:13.45       65903084 B   ---   --   ---xx   flac  0.5053  uvhippo2010-01-07d01t03.flac
     9:19.17       98647628 B   ---   --   ---xx   flac  0.4862  uvhippo2010-01-07d01t04.flac
     6:55.38       73295420 B   ---   --   ---xx   flac  0.5048  uvhippo2010-01-07d01t05.flac
    10:52.10      115036364 B   ---   --   ---xx   flac  0.5388  uvhippo2010-01-07d01t06.flac
    57:15.47      606044808 B                            0.5052  (6 files)



 








More information about the bittorrent mailing list