[bittorrent] gd72-08-20.83733.sbd.miller-patched.sbeok.t-flac16

Automated Mailer noreply-bt.e at etree.org
Fri Jan 8 05:23:17 MST 2010


Band:           Grateful Dead
Torrent Name:   gd72-08-20.83733.sbd.miller-patched.sbeok.t-flac16
Uploaded by:    germain
DB Link:        http://db.etree.org/shn/83733
Details:        http://bt.etree.org/details.php?id=531388

Contact the seeder at http://db.etree.org/germain

If the link to this show does not work, it was probably removed for
being non-trade-friendly.

Description / text file:
-------------------------
his is a tagged version of shnid: 83733

Grateful Dead  
August 20, 1972
Civic Auditorium  
San Jose, CA
gd72-08-20.sbd.miller.83733.sbeok.flac16

Recording Info:
SBD -> Cassette Master -> Reel -> Dat (48k)

Transfer Info:
Dat (Sony R500) -> SEK'D Prodif Plus -> Samplitude Professional 
v8.01 -> FLAC
(3 Discs Audio / 2 Discs FLAC)

All Transfers and Mastering By Charlie Miller
charliemiller87 at earthlink.net
March 25, 2007

Patch Info:
There was some other show bleeding through the tape for first few songs,
so I used the circulating etree sbd to patch Me And My Uncle through 
Bird Song.

Other Patches:
Recording by Olaf Schiappacasse (using Gene Taback's equipment):
Sony Stereo Mic -> Cassette Master (Sony TC-124) supplies:
Bertha (complete track)
Cumberland Blues (0:00 - 1:34)
The Other One (5:59 - 8:14)
Uncle John's Band (complete track)

Notes:
-- All disc changes are seamless
-- The levels are a mess causing hiss in places, I did my best..
-- Sound quality improves for the 2nd Set
-- Patches are not perfect, but are better
-- Thanks to David Minches for the AUD patch source
________________________________________________________________________

--Set 1--
101-d1t01 - Bertha
102-d1t02 - Me & My Uncle
103-d1t03 - Sugaree
104-d1t04 - Beat It on Down the Line
105-d1t05 - Bird Song
106-d1t06 - Jack Straw
107-d1t07 - Friend of the Devil
108-d1t08 - Black Throated Wind
109-d1t09 - Cumberland Blues
110-d1t10 - El Paso
111-d1t11 - Loser
112-d2t01 - Playing in the Band

--Set 2--
201-d2t02 - The Promised Land
202-d2t03 - Brown Eyed Women
203-d2t04 - Me & Bobby McGee
204-d2t05 - He's Gone
205-d3t01 - Truckin' ->
206-d3t02 - Drums ->
207-d3t03 - The Other One ->
208-d3t04 - Stella Blue
209-d3t05 - Sugar Magnolia
210-d3t06 - Casey Jones
211-d3t07 - One More Saturday Night

--Encore--
212-d3t08 - Uncle John's Band
_______________________________________________________________________

Tagging notes:
Show information is embedded within the header of each flac file. 
It will display on any player capable of directly playing flac 
files. If converted to wav during processing, all tags will be 
stripped, however audio data will remain unaffected. If you must 
transcode to a lossy format, do so directly Flac > Lossy.
Use ffp to validate audio integrity.
Md5 values will change if tagging is altered.
B. Proctor 5-18-09
_______________________________________________________________________

SHNTOOL OUTPUT:
    length     expanded size   cdr  WAVE problems filename
     5:56.30       62869004    ---   --   ---xx   gd72-08-20d1t01.flac
     4:26.64       47072972    ---   --   ---xx   gd72-08-20d1t02.flac
     7:53.15       83472524    ---   --   ---xx   gd72-08-20d1t03.flac
     4:14.52       44927948    ---   --   ---xx   gd72-08-20d1t04.flac
     9:25.70       99830684    ---   --   ---xx   gd72-08-20d1t05.flac
     5:04.71       53792636    ---   --   ---xx   gd72-08-20d1t06.flac
     4:58.28       52633100    ---   --   ---xx   gd72-08-20d1t07.flac
     7:05.74       75144092    ---   --   ---xx   gd72-08-20d1t08.flac
     6:34.07       69518108    ---   --   ---xx   gd72-08-20d1t09.flac
     5:07.15       54190124    ---   --   ---xx   gd72-08-20d1t10.flac
     6:55.40       73300124    ---   --   ---xx   gd72-08-20d1t11.flac
    14:15.70      150986684    ---   --   ---xx   gd72-08-20d2t01.flac
     3:24.58       36122060    ---   --   ---xx   gd72-08-20d2t02.flac
     5:09.11       54533516    ---   --   ---xx   gd72-08-20d2t03.flac
     6:17.37       66589868    ---   --   ---xx   gd72-08-20d2t04.flac
     9:23.21       99362636    ---   --   ---xx   gd72-08-20d2t05.flac
    10:41.38      113161820    ---   --   ---xx   gd72-08-20d3t01.flac
     3:08.01       33165596    ---   --   ---xx   gd72-08-20d3t02.flac
    22:40.49      240019292    ---   --   ---xx   gd72-08-20d3t03.flac
    10:27.73      110774540    ---   --   ---xx   gd72-08-20d3t04.flac
     8:44.06       92447756    ---   --   ---xx   gd72-08-20d3t05.flac
     6:30.12       68824268    ---   --   ---xx   gd72-08-20d3t06.flac
     8:11.49       86727692    ---   --   ---xx   gd72-08-20d3t07.flac
     7:16.44       77013932    ---   --   ---xx   gd72-08-20d3t08.flac
   183:54.35     1946480976 B                     (totals for 24 files)
-08-20d3t08.flac
   183:54.35     1946480976 B                     (totals for 24 files)




More information about the bittorrent mailing list