[bittorrent] Michael Beauchamp Circus Bar Ann Arbor, Michigan 1/6/2010

Automated Mailer noreply-bt.e at etree.org
Thu Jan 7 11:50:44 MST 2010


Band:           Other
Torrent Name:   Michael Beauchamp Circus Bar Ann Arbor, Michigan 1/6/2010
Uploaded by:    zmanatl
DB Link:        
Details:        http://bt.etree.org/details.php?id=531376

Contact the seeder at http://db.etree.org/zmanatl

If the link to this show does not work, it was probably removed for
being non-trade-friendly.

Description / text file:
-------------------------
Michael Beauchamp
Circus Bar 
Ann Arbor, Michigan
1/6/2010

Source: Schoeps CCM4V'S(din)>Lunatec V2>Benchmark AD2K>
Sound Devices 722 (24/48)
Location: FOB/DLFC/KFC/ZFC/AARP 5' From Stage, 7' High
DSP: Sound Devices 722>Sound Forge 9.0>CD Wave>flac(16)
Recorded By: Z-Man
Seeded By: Z-Man

Disc I

01 Send All My Letters Your Way
02 Ann's Gowning Day
03 This House Is Gonna Kill Me Blues
04 *Little Maggie >
05 *Talk About Sufferin' >
06 *Goin' To Cairo
07 *The Walk Of A Man
08 I Wish, I Wish >
09 *Vamp For John
10 *#Marry Me
11 *#Oh Come To Town

* With Laurel Primo
# With Greg Burns On Bass

Flac Fingerprint 

michaelbeauchamp2010-01-06d01t01.flac:660c3ec8eb2cec9d1d99be51d61e271d
michaelbeauchamp2010-01-06d01t02.flac:81f6a2ed754633cd2ea7539489c1d1d1
michaelbeauchamp2010-01-06d01t03.flac:2b98cb204131d8104c0d2b9bce0fc1a9
michaelbeauchamp2010-01-06d01t04.flac:31e91f06531eb2305ab07eb5a01d6372
michaelbeauchamp2010-01-06d01t05.flac:feb0ee54a6a3aeba8777201e41722271
michaelbeauchamp2010-01-06d01t06.flac:834d08c3366ddd654f908137ed20082f
michaelbeauchamp2010-01-06d01t07.flac:04c1a76b44a49a3c18b362c6f58124f3
michaelbeauchamp2010-01-06d01t08.flac:23ff7076e4c92c5c3c48a2ada0817e48
michaelbeauchamp2010-01-06d01t09.flac:da60efaacc7fd85dc865b1116df1a169
michaelbeauchamp2010-01-06d01t10.flac:a7bc965f7c6bd8f03aae8fa023a7b091
michaelbeauchamp2010-01-06d01t11.flac:b01141992fe019113a10dc5945fe8337

Shntool 

    length     expanded size    cdr  WAVE problems  fmt   ratio  filename
     4:07.05       43582604 B   ---   --   ---xx   flac  0.4153  michaelbeauchamp2010-01-06d01t01.flac
     3:42.62       39306668 B   ---   --   ---xx   flac  0.4350  michaelbeauchamp2010-01-06d01t02.flac
     4:10.73       44271740 B   ---   --   ---xx   flac  0.4370  michaelbeauchamp2010-01-06d01t03.flac
     2:51.34       30244412 B   ---   --   ---xx   flac  0.4275  michaelbeauchamp2010-01-06d01t04.flac
     3:55.03       41461100 B   ---   --   ---xx   flac  0.5078  michaelbeauchamp2010-01-06d01t05.flac
     2:42.23       28630940 B   ---   --   ---xx   flac  0.4818  michaelbeauchamp2010-01-06d01t06.flac
     9:14.65       97878524 B   ---   --   ---xx   flac  0.4744  michaelbeauchamp2010-01-06d01t07.flac
     4:13.62       44775068 B   ---   --   ---xx   flac  0.5108  michaelbeauchamp2010-01-06d01t08.flac
     4:55.65       52190924 B   ---   --   ---xx   flac  0.5038  michaelbeauchamp2010-01-06d01t09.flac
     5:56.66       62953676 B   ---   --   ---xx   flac  0.5074  michaelbeauchamp2010-01-06d01t10.flac
     4:57.16       52428476 B   ---   --   ---xx   flac  0.5261  michaelbeauchamp2010-01-06d01t11.flac
    50:48.24      537724132 B                            0.4788  (11 files)






More information about the bittorrent mailing list