[bittorrent] gd80-12-31.ptch-sbd.tobin.105027.sbeok.flac16

Automated Mailer noreply-bt.e at etree.org
Tue Jan 5 11:18:51 MST 2010


Band:           Grateful Dead
Torrent Name:   gd80-12-31.ptch-sbd.tobin.105027.sbeok.flac16
Uploaded by:    simone
DB Link:        http://db.etree.org/shn/105027
Details:        http://bt.etree.org/details.php?id=531340

Contact the seeder at http://db.etree.org/simone

If the link to this show does not work, it was probably removed for
being non-trade-friendly.

Description / text file:
-------------------------
Grateful Dead 
Oakland Auditorium 
Oakland, CA  
12/31/80 

Patched and pitch corrected Soundboard

Acoustic Set

d1t01 - Dire Wolf
d1t02 - Thank You Uncle Bobo!
d1t03 - On The Road Again
d1t04 - To Lay Me Down
d1t05 - Monkey & The Engineer
d1t06 - Jack-A-Roe
d1t07 - Cassidy
d1t08 - I've Been All Around This World
d1t09 - The Race Is On
d1t10 - Bird Song>
d1t11 - Ripple

Electric Set One

d1t12 - Alabama Getaway>
d1t13 - Greatest Story Ever Told
d1t14 - Tuning (1)
d2t01 - They Love Each Other
d2t02 - Tuning (1)
d2t02 - Little Red Rooster (2)
d2t04 - China Cat Sunflower>
d2t05 - I Know You Rider
d2t06 - Looks Like Rain
d2t07 - Althea
d2t08 - Lost Sailor>
d2t09 - Saint Of Circumstance>
d2t10 - Deal

Electric Set Two

d3t01 - New Years Countdown>
d3t02 - Sugar Magnolia>
d3t03 - Scarlet Begonias>
d3t04 - Fire On The Mountain (3)
d3t05 - Estimated Prophet>
d3t06 - Jerry w/Drums
d3t07 - Drums>
d4t01 - Space>
d4t02 - The Other One>
d4t03 - Wharf Rat> (3)
d4t04 - Around & Around> (3)
d4t05 - Sunshine Daydream (3)

Encore:

d4t06 - Satisfaction>
d4t07 - Brokedown Palace

(1) Please note that cds are tracked where first 2 songs of Electric Set are included on disk 1 - If the two tuning are left out, all of the Electric Set will fit on one CD.
(2) w/Matt Kelly on Harmonica
(3) w/John Cippolina on Guitar

Audio Source Information
SBD (shnid = 17693)

Source: MSR>C>DAT>WAV>SHN
Source: Aud Patch - NAK 700's FOB>MAC>C>DAT>WAV>SHN

C>SHN Conversion by Cousinit

Patched with:
AUD1 (shnid = 104971)

MOTB Release: 0106  24/96
Release Date: 12-25-09
Band: Grateful Dead
Date: 1980-12-31 (Wednesday)
Venue: Oakland Auditorium Arena
Location: Oakland, CA
Analog Audience Source:FOB Master Cassettes (MAC)
Medium Stock Brands:3 x Maxell UDXL II 90
Analog Lineage:2 x Nakamichi CM 300 >> Sony TC D5 >> MAC
Analog Sound Preservation:: MAC >> Nakamichi CR7a => Korg MR-1000 >> DSF [1-bit 5.6448 MHz Stereo] >> Korg MR-1000 => Korg AudioGate >> WAV [24/96]
Taped By: Anonymous
Transfer By: Bob Menke
Mastering By: Derek McCabe

AUD2 (shnid = 16911)

Taper: Steve Rolfe
Source: Nak 300 Shotguns > D5 > MAC > DAT > CDR
Encoding: EAC(secure) > Cool Edit > CDWAV > mkwact > shn(seekable) mvernon54 at attbi.com
Thanks to David Minor for the CD's

Notes
- tape flip after Cassidy
- tape flip after IKYR
- tape flip after Fire on the Mountain
- tape flip @ end of TOO cross faded with sbd

---------------------------------------------------------
- Mixed by kevtobin at yahoo.com
- FLAC conversion 28-DEC-2009
---------------------------------------------------------
Audio Patches:

1) The beginning of the soundboard was missing, the first 16 minutes and 22.334 seconds was filled in with audio from the Menke (AUD1) source. This includes all of Dire Wolf, Uncle Bobo Intro, On The Road Again and the first 5 minutes and 33.154 seconds of To Lay Me Down.

2) At the beginning of 2nd set, 09.919 seconds were missing from the Soundboard (SBD) source and was filled in with audio from the Rolfe (AUD2) source. This includes first notes of Alabama Getaway.

3) Between I Know You Rider and Looks Like Rain, 31.903 seconds were missing from the Soundboard (SBD) source and was filled in with audio from the Menke (AUD1) source. 

4) Between Fire On The Mountain and Estimated Prophet, 34.495 seconds were missing from the Soundboard (SBD) source and was filled in with audio from the Rolfe (AUD2) source. 

5) About 15 seconds into Jerry/Drums Jam, 17.680 seconds were missing from the Soundboard (SBD) source and was filled in with audio from the Rolfe (AUD2) source. 

6) About 2 minutes and 15 seconds into Drums Jam, 19.423 seconds were missing from the Soundboard (SBD) source and was filled in with audio from the Rolfe (AUD2) source. 

7) About 4 minutes and 45 seconds into Drums Jam, 35.755 seconds were missing from the Soundboard (SBD) source and was filled in with audio from the Rolfe (AUD2) source. 

8) Between Sunshine Daydream and Satisfaction, 1 minute and 17.366 seconds were missing from the Soundboard (SBD) source and was filled in with audio from the Menke (AUD1) source. This includes first few notes of Satisfaction. 

9) NOTE: The Menke Audience came in 24/96 format and the Dave McCallum DVD came as 16/48 format while the Soundboard and Rolfe Audience came as 16/44 format. Using R8brain Pro, the Menke Aud was reduced to 16/48 and the Soundboard and Rolfe Audience were expanded to 16/48 so as to facilitate ending up with 16/48 matrix to use on upcoming video. After matrix was mixed, R8Brain Pro was used to reduce matrix and soundboard to cd compatible 16/44.

10) Matrix\DTS were synced using the video as a reference. Both sources were well matched soundwise with the soundboard and Rolfe Audience ran slightly slow as compared with the video and the Menke audience was just slightly fast.

Brokedown House Production

    length     expanded size    cdr  WAVE problems  fmt   ratio  filename
     4:24.43       46670780 B   ---   --   -----    wav  1.0000  gd1980-12-31d1t01.wav
     1:12.50       12818444 B   ---   --   -----    wav  1.0000  gd1980-12-31d1t02.wav
     4:59.71       52910636 B   ---   --   -----    wav  1.0000  gd1980-12-31d1t03.wav
    10:49.52      114605948 B   ---   --   -----    wav  1.0000  gd1980-12-31d1t04.wav
     3:38.64       38605772 B   ---   --   -----    wav  1.0000  gd1980-12-31d1t05.wav
     6:15.31       66222956 B   ---   --   -----    wav  1.0000  gd1980-12-31d1t06.wav
     6:11.41       65540876 B   ---   --   -----    wav  1.0000  gd1980-12-31d1t07.wav
     6:22.16       67422476 B   ---   --   -----    wav  1.0000  gd1980-12-31d1t08.wav
     2:22.50       25166444 B   ---   --   -----    wav  1.0000  gd1980-12-31d1t09.wav
    10:07.59      107213612 B   ---   --   -----    wav  1.0000  gd1980-12-31d1t10.wav
     4:34.01       48335996 B   ---   --   -----    wav  1.0000  gd1980-12-31d1t11.wav
     5:56.24       62854892 B   ---   --   -----    wav  1.0000  gd1980-12-31d1t12.wav
     4:18.66       45666476 B   ---   --   -----    wav  1.0000  gd1980-12-31d1t13.wav
     1:34.11       16607516 B   ---   --   -----    wav  1.0000  gd1980-12-31d1t14.wav
     7:29.65       79356524 B   ---   --   -----    wav  1.0000  gd1980-12-31d2t01.wav
     1:34.12       16609868 B   ---   --   -----    wav  1.0000  gd1980-12-31d2t02.wav
    10:22.01      109723196 B   ---   --   -----    wav  1.0000  gd1980-12-31d2t03.wav
     5:53.58       62405660 B   ---   --   -----    wav  1.0000  gd1980-12-31d2t04.wav
     7:05.72       75139388 B   ---   --   -----    wav  1.0000  gd1980-12-31d2t05.wav
     8:47.22       93014588 B   ---   --   -----    wav  1.0000  gd1980-12-31d2t06.wav
     8:20.28       88265900 B   ---   --   -----    wav  1.0000  gd1980-12-31d2t07.wav
     6:44.50       71383244 B   ---   --   -----    wav  1.0000  gd1980-12-31d2t08.wav
     6:25.42       68012828 B   ---   --   -----    wav  1.0000  gd1980-12-31d2t09.wav
     7:22.55       78098204 B   ---   --   -----    wav  1.0000  gd1980-12-31d2t10.wav
     3:11.29       33760652 B   ---   --   -----    wav  1.0000  gd1980-12-31d3t01.wav
     6:40.57       70694108 B   ---   --   -----    wav  1.0000  gd1980-12-31d3t02.wav
    10:04.60      106686764 B   ---   --   -----    wav  1.0000  gd1980-12-31d3t03.wav
    10:37.64      112517372 B   ---   --   -----    wav  1.0000  gd1980-12-31d3t04.wav
    12:52.65      136333724 B   ---   --   -----    wav  1.0000  gd1980-12-31d3t05.wav
     2:08.26       22640396 B   ---   --   -----    wav  1.0000  gd1980-12-31d3t06.wav
     7:51.73       83256140 B   ---   --   -----    wav  1.0000  gd1980-12-31d3t07.wav
     6:49.60       72288764 B   ---   --   -----    wav  1.0000  gd1980-12-31d4t01.wav
    10:34.14      111870572 B   ---   --   -----    wav  1.0000  gd1980-12-31d4t02.wav
     9:52.21      104478236 B   ---   --   -----    wav  1.0000  gd1980-12-31d4t03.wav
     4:53.39       51776972 B   ---   --   -----    wav  1.0000  gd1980-12-31d4t04.wav
     5:02.09       53294012 B   ---   --   -----    wav  1.0000  gd1980-12-31d4t05.wav
     6:16.65       66479324 B   ---   --   -----    wav  1.0000  gd1980-12-31d4t06.wav
     6:32.15       69184124 B   ---   --   -----    wav  1.0000  gd1980-12-31d4t07.wav
   246:24.06     2607913384 B                            1.0000  (38 files)




More information about the bittorrent mailing list