[bittorrent] Bloodkin Smith's Olde Bar Atlanta, Georgia 1/2/2010 (Schoeps CCM4V'S FOB)

Automated Mailer noreply-bt.e at etree.org
Sun Jan 3 16:04:09 MST 2010


Band:           Other
Torrent Name:   Bloodkin Smith's Olde Bar Atlanta, Georgia 1/2/2010 (Schoeps CCM4V'S FOB)
Uploaded by:    zmanatl
DB Link:        
Details:        http://bt.etree.org/details.php?id=531306

Contact the seeder at http://db.etree.org/zmanatl

If the link to this show does not work, it was probably removed for
being non-trade-friendly.

Description / text file:
-------------------------
Bloodkin
Smith's Olde Bar
Atlanta, Georgia
1/2/2010

Source: Schoeps CCM4V'S(din)>Lunatec V2>Benchmark AD2K>
Sound Devices 722 (24/48)
Location: FOB/DFC/KFC/ZFC/AARP 17' From Stage, 7' High
DSP: Sound Devices 722>Sound Forge 9.0>CD Wave>flac(16)
Recorded By: Z-Man
Seeded By: Z-Man

Disc I  

01 ?
02 You Better Pray
03 Little Margarita
04 My Name Is Alice
05 High Lonesome
06 Rotgut >
07 Mercy Train To Bogart
08 I Had A Pony
09 Success Yourself
10 End Of The Show
11 You Ain't Goin' Nowhere
12 ?
13 Magic Show
14 Quarter Tank Of Gasoline
15 Happy

Flac Fingerprint 

bloodkin2010-01-02d01t01.flac:b3a3c8034702e4806cfc95a29d06465e
bloodkin2010-01-02d01t02.flac:450564923d3f0b5ae67160d9b7522b03
bloodkin2010-01-02d01t03.flac:dc8b3c0016270b293a50ada0f94d427c
bloodkin2010-01-02d01t04.flac:5362217d741054f2155dd5b88566670e
bloodkin2010-01-02d01t05.flac:06781c2c64d97ae37e2423c5215ea22b
bloodkin2010-01-02d01t06.flac:4261eb5fd9490e54c37849fc6bede0a6
bloodkin2010-01-02d01t07.flac:66711400b07c17b7942e910ef3b31051
bloodkin2010-01-02d01t08.flac:8f6e0b69a9ac51d27d46e1c87a0dfd03
bloodkin2010-01-02d01t09.flac:9e98f770cf13e70220d052c748b929ec
bloodkin2010-01-02d01t10.flac:5ad1691563b54e66cebbc3743f8b1512
bloodkin2010-01-02d01t11.flac:63ac745ed9e6812545bd67a051748d45
bloodkin2010-01-02d01t12.flac:53febf1a6927e758cd8721faa21bcb70
bloodkin2010-01-02d01t13.flac:98a1a5ca084abfd7126a19c3fd0374be
bloodkin2010-01-02d01t14.flac:f919a4698a891271f244eec31eeac276
bloodkin2010-01-02d01t15.flac:b7845845f9e91b900a483a502ebef073

Shntool 

    length     expanded size    cdr  WAVE problems  fmt   ratio  filename
     3:49.50       40513244 B   ---   --   ---xx   flac  0.5557  bloodkin2010-01-02d01t01.flac
     3:04.37       32544668 B   ---   --   ---xx   flac  0.5540  bloodkin2010-01-02d01t02.flac
     4:09.52       44045948 B   ---   --   ---xx   flac  0.5882  bloodkin2010-01-02d01t03.flac
     4:33.14       48190172 B   ---   --   ---xx   flac  0.4789  bloodkin2010-01-02d01t04.flac
     5:35.70       59258684 B   ---   --   ---xx   flac  0.4711  bloodkin2010-01-02d01t05.flac
     5:52.53       62217500 B   ---   --   ---xx   flac  0.5644  bloodkin2010-01-02d01t06.flac
     4:49.15       51014924 B   ---   --   ---xx   flac  0.5670  bloodkin2010-01-02d01t07.flac
     5:42.04       60338252 B   ---   --   ---xx   flac  0.5506  bloodkin2010-01-02d01t08.flac
     7:41.37       81407468 B   ---   --   ---xx   flac  0.5424  bloodkin2010-01-02d01t09.flac
     8:26.21       89307836 B   ---   --   ---xx   flac  0.4999  bloodkin2010-01-02d01t10.flac
     4:19.00       45687644 B   ---   --   ---xx   flac  0.5060  bloodkin2010-01-02d01t11.flac
     3:23.28       35875100 B   ---   --   ---xx   flac  0.5551  bloodkin2010-01-02d01t12.flac
     3:25.60       36303164 B   ---   --   ---xx   flac  0.5446  bloodkin2010-01-02d01t13.flac
     7:43.09       81694412 B   ---   --   ---xx   flac  0.5304  bloodkin2010-01-02d01t14.flac
     4:30.65       47780924 B   ---   --   ---xx   flac  0.5887  bloodkin2010-01-02d01t15.flac
    77:06.65      816179940 B                            0.5364  (15 files)








More information about the bittorrent mailing list