[bittorrent] Outformation Smith's Olde Bar Atlanta, Georia 1/2/2010

Automated Mailer noreply-bt.e at etree.org
Sun Jan 3 09:42:53 MST 2010


Band:           Outformation
Torrent Name:   Outformation Smith's Olde Bar Atlanta, Georia 1/2/2010
Uploaded by:    zmanatl
DB Link:        
Details:        http://bt.etree.org/details.php?id=531298

Contact the seeder at http://db.etree.org/zmanatl

If the link to this show does not work, it was probably removed for
being non-trade-friendly.

Description / text file:
-------------------------
Outformation
Smith's Olde Bar
Atlanta, Georgia
1/2/2010

Source: Schoeps CCM4V'S(din)>Lunatec V2>Benchmark AD2K>
Sound Devices 722 (24/48)
Location: FOB/DFC/KFC/ZFC/AARP 17' From Stage, 7' High
DSP: Sound Devices 722>Sound Forge 9.0>CD Wave>flac(16)
Recorded By: Z-Man
Seeded By: Z-Man

Disc I  

01 Presentation of 2009 Player Of The Year Award To Z-Man By Steve Lopez
02 Start It Out Again
03 History Lesson III >
04 Eleventeen
05 Carnac >
06 Time Is Free >
07 Carnac
08 No Doubt >
09 Check Me Out

Disc II 

01 Game On >
02 Edgewater >
03 Tina Funk >
04 Into My Arms
05 American Spirit
06 Tuning
07 Stone In My Shoe
08 Tuning/Lee Haraway Joins The Boys
09 *Hey >
10 *90

Disc III 

01 Tuning/Will Haraway Joins The Boys
02 *# ?
03 *#Center Stage >
04 *#Can't Change The Past
Encore:
05 Tuning
06 *#That's The Reason 
07 *#Long Hard Ride 
08 *#Tennessee Before Daylight

* With Lee Haraway Of The Sunbdogs
# With Will Haraway Of The Sundogs On Bass

Flac Fingerprint 

outformation2010-01-02d01t01.flac:43bb5c363fa4b22c1425302d9eb2c4b0
outformation2010-01-02d01t02.flac:9832f84fbeab922a298a829f3a0147a9
outformation2010-01-02d01t03.flac:9693fd7f6bf880387e24267fed79d680
outformation2010-01-02d01t04.flac:5b9e30801caf9b4e55ec19da80497c95
outformation2010-01-02d01t05.flac:d21803f3d20db23355a1b2941066ca7c
outformation2010-01-02d01t06.flac:aee6bfe508e13616863b4a2c03e94c22
outformation2010-01-02d01t07.flac:ebf6b80c8eadbd05bc5f0bd91fe57d23
outformation2010-01-02d01t08.flac:832924bc7ff86c0e5a8f641a91bdfa80
outformation2010-01-02d01t09.flac:bd8dee168a93fa98e6d7fef68734ed95
outformation2010-01-02d02t01.flac:b901d4566c7573e5de4650028ed5e6e7
outformation2010-01-02d02t02.flac:e2cc4eb0429110b11d5403d8d391126e
outformation2010-01-02d02t03.flac:0fd482661c3647cbf9eaa9d21c2075f0
outformation2010-01-02d02t04.flac:33cf155208ad00eb30591bb9c280f0f3
outformation2010-01-02d02t05.flac:4daddcb966a07dc326715b37fbc7f063
outformation2010-01-02d02t06.flac:2a076a4ce0161bbcc719b8faf89306da
outformation2010-01-02d02t07.flac:62edef6e982857e38daef6e8ab82394f
outformation2010-01-02d02t08.flac:6a4f484e9117dee25086f93ebd8b72e2
outformation2010-01-02d02t09.flac:f584f7528ead7c275f653b68f712e2ba
outformation2010-01-02d02t10.flac:99e379b61355b3684b1cc22c6eb27754
outformation2010-01-02d03t01.flac:b87a2de0ba77013916e4b4e5b0320f6a
outformation2010-01-02d03t02.flac:ed26a7a95e98d425794fa3e0062ce355
outformation2010-01-02d03t03.flac:4e4ee90d7daf38bb493ad487ce5ce5b8
outformation2010-01-02d03t04.flac:87f9912d06f25a3d425316d081c6be9e
outformation2010-01-02d03t05.flac:a45ce1fca22d7be14ec7a95b76e8273c
outformation2010-01-02d03t06.flac:cb8b871b3d1e21504776e94fb70d6c2d
outformation2010-01-02d03t07.flac:857f75ac56745d50488748cf34cc1def
outformation2010-01-02d03t08.flac:de76ae7722ecffe9de9a58b4315a5aaa

Shntool 

    length     expanded size    cdr  WAVE problems  fmt   ratio  filename
     1:31.17       16092428 B   ---   --   ---xx   flac  0.4363  outformation2010-01-02d01t01.flac
     9:55.31      105030956 B   ---   --   ---xx   flac  0.5460  outformation2010-01-02d01t02.flac
     2:11.69       23270732 B   ---   --   ---xx   flac  0.4986  outformation2010-01-02d01t03.flac
     9:04.03       95968700 B   ---   --   ---xx   flac  0.5461  outformation2010-01-02d01t04.flac
     7:51.18       83126780 B   ---   --   ---xx   flac  0.5800  outformation2010-01-02d01t05.flac
     5:18.14       56128172 B   ---   --   ---xx   flac  0.5770  outformation2010-01-02d01t06.flac
     1:55.57       20420108 B   ---   --   ---xx   flac  0.4578  outformation2010-01-02d01t07.flac
     7:14.19       76602332 B   ---   --   ---xx   flac  0.5306  outformation2010-01-02d01t08.flac
     9:15.40       97996124 B   ---   --   ---xx   flac  0.5657  outformation2010-01-02d01t09.flac
     4:27.38       47188220 B   ---   --   ---xx   flac  0.5532  outformation2010-01-02d02t01.flac
     6:47.16       71832476 B   ---   --   ---xx   flac  0.6013  outformation2010-01-02d02t02.flac
     2:02.49       21636092 B   ---   --   ---xx   flac  0.5172  outformation2010-01-02d02t03.flac
     7:35.66       80417276 B   ---   --   ---xx   flac  0.5696  outformation2010-01-02d02t04.flac
     7:25.37       78585068 B   ---   --   ---xx   flac  0.5746  outformation2010-01-02d02t05.flac
     1:30.70       16040684 B   ---   --   ---xx   flac  0.3596  outformation2010-01-02d02t06.flac
    19:42.59      208643612 B   ---   --   ---xx   flac  0.5760  outformation2010-01-02d02t07.flac
     2:29.70       26448284 B   ---   --   ---xx   flac  0.3669  outformation2010-01-02d02t08.flac
     7:32.31       79805756 B   ---   --   ---xx   flac  0.5601  outformation2010-01-02d02t09.flac
     9:43.29      102909452 B   ---   --   ---xx   flac  0.5688  outformation2010-01-02d02t10.flac
     1:54.61       20253116 B   ---   --   ---xx   flac  0.3894  outformation2010-01-02d03t01.flac
     8:25.57       89216108 B   ---   --   ---xx   flac  0.5633  outformation2010-01-02d03t02.flac
    14:50.20      157043084 B   ---   --   ---xx   flac  0.5356  outformation2010-01-02d03t03.flac
     7:27.53       78975500 B   ---   --   ---xx   flac  0.5521  outformation2010-01-02d03t04.flac
     1:33.09       16426412 B   ---   --   ---xx   flac  0.3365  outformation2010-01-02d03t05.flac
     4:55.21       52087436 B   ---   --   ---xx   flac  0.5560  outformation2010-01-02d03t06.flac
     7:04.49       74908892 B   ---   --   ---xx   flac  0.5733  outformation2010-01-02d03t07.flac
    11:02.64      116927372 B   ---   --   ---xx   flac  0.5503  outformation2010-01-02d03t08.flac
   180:50.17     1913981172 B                            0.5498  (27 files)








More information about the bittorrent mailing list