[bittorrent] The Word 2009-12-31 Terminal 5 NYC, NY Schoeps MK4>CMC6>Sonosax>Apogee Mini-me*****fixed version*****

Automated Mailer noreply-bt.e at etree.org
Sun Jan 3 09:23:06 MST 2010


Band:           Other
Torrent Name:   The Word 2009-12-31 Terminal 5 NYC,NY Schoeps MK4>CMC6>Sonosax>Apogee Mini-me*****fixed version*****
Uploaded by:    andyjah
DB Link:        
Details:        http://bt.etree.org/details.php?id=531297

Contact the seeder at http://db.etree.org/andyjah

If the link to this show does not work, it was probably removed for
being non-trade-friendly.

Description / text file:
-------------------------
The Word
2009-12-31
Terminal 5
NYC, NY

Recorded and transferred by Andy Murray

DINA DFC from FOH
Schoeps MK4>KC5>CMC6>Sonosax SX-M2>Apogee Mini-me(aes out at 24 bit/96khz)>COAX>Edirol R-44
SD-HC Card>USB>Soundforge 8(tracking,normalize,resample/dither to 16bit/44.1khz)>FLAC (sector alignment,Level 8)

John Medeski - Keys
Robert Randolph - Pedal Steel
Chris Chew - Bass
Luther Dickinson - Guitar
Cody Dickinson - Drums

3 Discs
1 Set

Disc 1:
Set 1:

1. crowd
2. I'll Fly Away
3. You Haven't Done Nothin' [Stevie Wonder] >
4. Medeski solo > Blood On That Rock
5. Joyful Sounds >
6. ????
7. Glory Glory Hallelujah >
8. Give It Up Or Turn It A Loose [James Brown] (inc. I Need More Love) >
9. ?Jam?
10. ???? >
11. ????

Disc 2:
Set 1 cont...

1. ????
2. Without God >
3. ???? >
4. Call Him By His Name >
5. ???? >
6. ???? >
7. At The Cross >
8. Waiting On My Wings
9. New Year's Eve Countdown
10. Waiting On My Wings (reprise) >
11. crowd / encore break

Disc 3:
Encore:

1. ????
2. When The Saints Go Marching In

    length     expanded size   cdr  WAVE problems filename
     0:57.58       10191260    ---   --   -----   word2009-12-31_mk4_1644_d1t01.wav
     9:58.42      105586028    ---   --   -----   word2009-12-31_mk4_1644_d1t02.wav
     7:20.70       77780684    ---   --   -----   word2009-12-31_mk4_1644_d1t03.wav
    10:06.02      106903148    ---   --   -----   word2009-12-31_mk4_1644_d1t04.wav
     9:28.63      100343420    ---   --   -----   word2009-12-31_mk4_1644_d1t05.wav
     3:39.62       38777468    ---   --   -----   word2009-12-31_mk4_1644_d1t06.wav
     5:47.27       61274348    ---   --   -----   word2009-12-31_mk4_1644_d1t07.wav
     7:47.19       82423532    ---   --   -----   word2009-12-31_mk4_1644_d1t08.wav
     6:50.44       72427532    ---   --   -----   word2009-12-31_mk4_1644_d1t09.wav
     7:09.15       75710924    ---   --   -----   word2009-12-31_mk4_1644_d1t10.wav
     6:44.42       71364428    ---   --   -----   word2009-12-31_mk4_1644_d1t11.wav
     7:06.33       75224060    ---   --   -----   word2009-12-31_mk4_1644_d2t01.wav
    17:59.43      190436780    ---   --   -----   word2009-12-31_mk4_1644_d2t02.wav
     8:13.12       86993468    ---   --   -----   word2009-12-31_mk4_1644_d2t03.wav
     8:31.17       90180428    ---   --   -----   word2009-12-31_mk4_1644_d2t04.wav
     3:33.06       37587356    ---   --   -----   word2009-12-31_mk4_1644_d2t05.wav
     5:17.63       56067020    ---   --   -----   word2009-12-31_mk4_1644_d2t06.wav
     5:03.51       53569196    ---   --   -----   word2009-12-31_mk4_1644_d2t07.wav
     8:14.05       87153404    ---   --   -----   word2009-12-31_mk4_1644_d2t08.wav
     1:43.27       18232748    ---   --   -----   word2009-12-31_mk4_1644_d2t09.wav
     9:46.73      103542140    ---   --   -----   word2009-12-31_mk4_1644_d2t10.wav
     3:18.68       35087180    ---   --   -----   word2009-12-31_mk4_1644_d2t11.wav
     6:29.01       68621996    ---   --   -----   word2009-12-31_mk4_1644_d3t01.wav
    11:34.09      122442812    ---   --   -----   word2009-12-31_mk4_1644_d3t02.wav
   172:42.27     1827921360 B                     (totals for 24 files, 1.0000 overall compression ratio)




More information about the bittorrent mailing list