[bittorrent] gd1978-01-13.fob.holwein.menke.motb.0111.105208.flac16 New MOTB!!!

Automated Mailer noreply-bt.e at etree.org
Fri Jan 1 16:22:08 MST 2010


Band:           Grateful Dead
Torrent Name:   gd1978-01-13.fob.holwein.menke.motb.0111.105208.flac16  New MOTB!!!
Uploaded by:    jthomas0237
DB Link:        http://db.etree.org/shn/105208
Details:        http://bt.etree.org/details.php?id=531241

Contact the seeder at http://db.etree.org/jthomas0237

If the link to this show does not work, it was probably removed for
being non-trade-friendly.

Description / text file:
-------------------------
MOTB Release: 0111 16/44.1
Release Date: 2009-12-30
Band: Grateful Dead
Date: 1978-01-13 (Friday)
Venue: Arlington Theater
Location: Santa Barbara, CA
Analog Audience Source: FOB Master Cassettes (MAC)
Medium Stock Brands: MAC = 2 x Maxell UDXL-II
Analog Lineage: 2 x AKG D224E >> Sony TC-158SD  >> MAC
Analog Sound Preservation: MAC >> Nakamichi CR7a => Korg MR-1000 >> DSF [1-bit 5.6448 MHz Stereo] >> Korg MR-1000 => Korg AudioGate >> WAV [24/96]
Taped By: Rheinhart Holwein
Transfer By: Bob Menke
Mastering By: Derek McCabe


Set 1:

d1t01: Mississippi Half Step
d1t02: Mexicali Blues >
d1t03: Big River
d1t04: Candyman
d1t05: It's All Over Now
d1t06: Brown Eyed Women
d1t07: Beat It On Down The Line
d1t08: Friend Of The Devil
d1t09: Lazy Lightning >
d1t10: Supplication

Set 2:

d2t01: Bertha >
d2t02: Good Lovin'
d2t03: Sunrise
d2t04: Dancin' In The Streets >
d3t01: Drums >
d3t02: Space >
d3t03: Wharf Rat >
d3t04: Truckin' >
d3t05: Around & Around
~encore~
d3t06: Sugar Magnolia


shntool 3.0.4
Copyright (C) 2000-2007 Jason Jordan

    length     expanded size    cdr  WAVE problems  fmt   ratio  filename
    10:32.02      111489548 B   ---   --   ---xx   flac  0.4714  gd1978-01-13.fob.menke.d1t01.flac
     3:42.37       39247868 B   ---   --   ---xx   flac  0.4835  gd1978-01-13.fob.menke.d1t02.flac
     6:58.74       73909292 B   ---   --   ---xx   flac  0.4783  gd1978-01-13.fob.menke.d1t03.flac
     8:13.24       87021692 B   ---   --   ---xx   flac  0.4466  gd1978-01-13.fob.menke.d1t04.flac
     8:05.66       85709276 B   ---   --   ---xx   flac  0.4924  gd1978-01-13.fob.menke.d1t05.flac
     6:36.56       69986156 B   ---   --   ---xx   flac  0.4680  gd1978-01-13.fob.menke.d1t06.flac
     3:51.54       40875452 B   ---   --   ---xx   flac  0.5115  gd1978-01-13.fob.menke.d1t07.flac
     9:38.39      102050972 B   ---   --   ---xx   flac  0.4547  gd1978-01-13.fob.menke.d1t08.flac
     3:36.48       38215340 B   ---   --   ---xx   flac  0.5028  gd1978-01-13.fob.menke.d1t09.flac
     6:26.24       68146892 B   ---   --   ---xx   flac  0.5031  gd1978-01-13.fob.menke.d1t10.flac
     6:45.26       71503196 B   ---   --   ---xx   flac  0.5201  gd1978-01-13.fob.menke.d2t01.flac
     6:41.53       70861100 B   ---   --   ---xx   flac  0.5139  gd1978-01-13.fob.menke.d2t02.flac
     4:09.11       43949516 B   ---   --   ---xx   flac  0.4704  gd1978-01-13.fob.menke.d2t03.flac
    13:44.31      145426556 B   ---   --   ---xx   flac  0.5056  gd1978-01-13.fob.menke.d2t04.flac
     5:47.09       61232012 B   ---   --   ---xx   flac  0.4901  gd1978-01-13.fob.menke.d3t01.flac
    13:20.53      141244700 B   ---   --   ---xx   flac  0.4890  gd1978-01-13.fob.menke.d3t02.flac
    12:14.09      129498812 B   ---   --   ---xx   flac  0.4924  gd1978-01-13.fob.menke.d3t03.flac
     8:59.68       95239580 B   ---   --   ---xx   flac  0.5268  gd1978-01-13.fob.menke.d3t04.flac
     8:22.59       88691612 B   ---   --   ---xx   flac  0.5204  gd1978-01-13.fob.menke.d3t05.flac
    11:05.52      117428348 B   ---   --   ---xx   flac  0.5126  gd1978-01-13.fob.menke.d3t06.flac
   158:53.45     1681727920 B                            0.4927  (20 files)



More information about the bittorrent mailing list