[bittorrent] Widespread Panic Philips Arena Atlanta, Georgia 12/31/2009 (Schoeps CCm4V'S)

Automated Mailer noreply-bt.e at etree.org
Fri Jan 1 03:49:39 MST 2010


Band:           Widespread Panic
Torrent Name:   Widespread Panic Philips Arena Atlanta, Georgia 12/31/2009 (Schoeps CCm4V'S)
Uploaded by:    zmanatl
DB Link:        
Details:        http://bt.etree.org/details.php?id=531224

Contact the seeder at http://db.etree.org/zmanatl

If the link to this show does not work, it was probably removed for
being non-trade-friendly.

Description / text file:
-------------------------
Widespread Panic
Philips Arena
Atlanta, Georgia
12/31/2009

Source: Schoeps CCM4V'S(din)>Lunatec V2>Benchmark AD2K>
Sound Devices 722 (24/48)
Location: OTS/DFC/KFC/ZFC/AARP 9' High
DSP: Sound Devices 722>Sound Forge 9.0>CD Wave>flac(16)
Recorded By: Z-Man
Seeded By: Z-Man

Disc I 1st Set (Acoustic Style)

01 Tuning
02 Let's Get Down To Business > 
03 Wondering
04 Already Fried
05 Tortured Artist
06 Clinic Cynic
07 Crazy 
08 Vacation
09 Expiration Day
10 Holden Oversoul
11 Porch Song 

Disc II 2nd Set 

01 Tuning
02 Lil Kin
03 Space Wrangler > 
04 Impossible >
05 Jam > 
06 Jack > 
07 Action Man
08 *Her Dance Needs Nobody  > 
09 *Up All Night
10 *Ophelia
11 Pigeons

Disc III 3rd Set 

01 Countdown!
02 *Wanna Be Startin Something  
03 *Tall Boy  
04 *Arleen  (With Another One Bites the Dust Rap) > 
05 Surprise Valley > 
06 Drum Solo > 
07 Surprise Valley > 
08 Driving Song > 
09 Space Jam >
10 Disco > 
11 Driving Song > 
12 Rock > 
	
Disc IV 3rd Set Con't

01 *I Wish  > 
02 *Moondance 
03 *Bust It Big > 
04 Chilly Water > 
05 Jam > 
06 Chilly Water 
Encore: 	
07 Tuning/Banter
08 Walkin' After Midnight 
09 Protein Drink >
10 Sewing Machine 

* With The Megablaster Horn Section

Flac Fingerprint 

wsp2009-12-31d01t01.flac:d54b6ac6c9e0ef892f45ed443c0f3fde
wsp2009-12-31d01t02.flac:67848e36b501443eb077f7ebd72d5a25
wsp2009-12-31d01t03.flac:e83b526ac010754a36379dd7846da9f9
wsp2009-12-31d01t04.flac:876e31832926816a929eb61fd9845fc7
wsp2009-12-31d01t05.flac:a7da777187b5870b7fd0a9ff668ab02f
wsp2009-12-31d01t06.flac:fd3d917679b22a4b642ae946c60c9071
wsp2009-12-31d01t07.flac:3802bcd6cd2cd1fd9c84f2c6258e7201
wsp2009-12-31d01t08.flac:dfc06d1748fabbecf7c1a1e917950849
wsp2009-12-31d01t09.flac:cebeb078e5c7fbc31bef21a534d2538e
wsp2009-12-31d01t10.flac:8c8b0a9250f87fb30d64a9223f2d2496
wsp2009-12-31d01t11.flac:d979f64feb2d7d8792952fd62059fbd7
wsp2009-12-31d02t01.flac:aba3dba3e077f9fd5fb0bad7d92ee1aa
wsp2009-12-31d02t02.flac:9fcfd0ce15e977cefbe1f07cce7ed01c
wsp2009-12-31d02t03.flac:cddc720cd2697c008d42e9664d4fbd55
wsp2009-12-31d02t04.flac:5fb8dfcc96a7ae19949a7077911e45e7
wsp2009-12-31d02t05.flac:f6b1f57f7d60085635b9e1566e7521da
wsp2009-12-31d02t06.flac:a3826a0285c1f599bf9d3bfdada8bc7c
wsp2009-12-31d02t07.flac:1d542cf7c5f4520c41825ea27d031e95
wsp2009-12-31d02t08.flac:d077231cd707f1de1a01cd15dd6d0977
wsp2009-12-31d02t09.flac:35254621f562d4a25ff2567a62c45c54
wsp2009-12-31d02t10.flac:db6f17a7b95636eac4279d4332821ff4
wsp2009-12-31d02t11.flac:554229d565ef368087038636fd8fc9f4
wsp2009-12-31d03t01.flac:f27228af4049030e896ea5d9f60090d7
wsp2009-12-31d03t02.flac:e3a172e50e1c749a76e976a9c6816347
wsp2009-12-31d03t03.flac:37971df984d9d73ea7a0ffa429b5fbf4
wsp2009-12-31d03t04.flac:fd29f3b492cfbbe9c500b15cf30cc60a
wsp2009-12-31d03t05.flac:4cb1a757be852e30520b1ec78f0d65ac
wsp2009-12-31d03t06.flac:de892886e4aa9933def9bcca9ef1b1d0
wsp2009-12-31d03t07.flac:71aeb35ad05e4cba3ef82d9961dec253
wsp2009-12-31d03t08.flac:0b7fdfc9e03fa7f1ca1594e6222605c7
wsp2009-12-31d03t09.flac:4eede94918edcb69c0733aa7ca0a320a
wsp2009-12-31d03t10.flac:0150ddc723cd748b377929ca0acbd0cd
wsp2009-12-31d03t11.flac:30017a0c98816b05c5fe7b021ef518ff
wsp2009-12-31d03t12.flac:61eb60cf3f042ffe533c759023216ec0
wsp2009-12-31d04t01.flac:eb4db80dfab60e6e45594218abcccbfc
wsp2009-12-31d04t02.flac:fbf778c9a13750757cf16029c29a6ccc
wsp2009-12-31d04t03.flac:edd6cb68b23432fb40c1e01c52750640
wsp2009-12-31d04t04.flac:4a14673487ec4be87fa1a2b5fe5afa95
wsp2009-12-31d04t05.flac:dab6265316b807d676774f039a1bb3e9
wsp2009-12-31d04t06.flac:fec586c91fe95912091985913797d06b
wsp2009-12-31d04t07.flac:8361f23c3e89615636e1d111e323f884
wsp2009-12-31d04t08.flac:1a41e071a92f62ee14871afa39a517a1
wsp2009-12-31d04t09.flac:4fed01907b7b5e5ce9e89cc34a5ead2f
wsp2009-12-31d04t10.flac:9c114c40df2f5cb2df41d27a3e84de14

Shntool 

    length     expanded size    cdr  WAVE problems  fmt   ratio  filename
     0:57.43       10155980 B   ---   --   ---xx   flac  0.3864  wsp2009-12-31d01t01.flac
     5:08.36       54415916 B   ---   --   ---xx   flac  0.4694  wsp2009-12-31d01t02.flac
     4:57.64       52541372 B   ---   --   ---xx   flac  0.4957  wsp2009-12-31d01t03.flac
     7:18.00       77263244 B   ---   --   ---xx   flac  0.4868  wsp2009-12-31d01t04.flac
     6:05.15       64421324 B   ---   --   ---xx   flac  0.5010  wsp2009-12-31d01t05.flac
     5:39.29       59867852 B   ---   --   ---xx   flac  0.5014  wsp2009-12-31d01t06.flac
     7:43.12       81701468 B   ---   --   ---xx   flac  0.5019  wsp2009-12-31d01t07.flac
     9:41.31      102561356 B   ---   --   ---xx   flac  0.4920  wsp2009-12-31d01t08.flac
     5:06.43       54079580 B   ---   --   ---xx   flac  0.4928  wsp2009-12-31d01t09.flac
     5:19.72       56440988 B   ---   --   ---xx   flac  0.5466  wsp2009-12-31d01t10.flac
     4:13.23       44683340 B   ---   --   ---xx   flac  0.5372  wsp2009-12-31d01t11.flac
     0:45.39        8029772 B   ---   --   ---xx   flac  0.3871  wsp2009-12-31d02t01.flac
     5:33.00       58741244 B   ---   --   ---xx   flac  0.5343  wsp2009-12-31d02t02.flac
     8:55.73       94545740 B   ---   --   ---xx   flac  0.5096  wsp2009-12-31d02t03.flac
     4:57.30       52461404 B   ---   --   ---xx   flac  0.5173  wsp2009-12-31d02t04.flac
     2:52.14       30373772 B   ---   --   ---xx   flac  0.5050  wsp2009-12-31d02t05.flac
     6:56.50       73500044 B   ---   --   ---xx   flac  0.5030  wsp2009-12-31d02t06.flac
     4:59.17       52783628 B   ---   --   ---xx   flac  0.5458  wsp2009-12-31d02t07.flac
     8:13.53       87089900 B   ---   --   ---xx   flac  0.4964  wsp2009-12-31d02t08.flac
     4:15.53       45106700 B   ---   --   ---xx   flac  0.5157  wsp2009-12-31d02t09.flac
     3:39.10       38655164 B   ---   --   ---xx   flac  0.5355  wsp2009-12-31d02t10.flac
     9:16.06       98092556 B   ---   --   ---xx   flac  0.5274  wsp2009-12-31d02t11.flac
     0:37.41        6623276 B   ---   --   ---xx   flac  0.4620  wsp2009-12-31d03t01.flac
    10:35.67      112171628 B   ---   --   ---xx   flac  0.5697  wsp2009-12-31d03t02.flac
     4:40.03       49399100 B   ---   --   ---xx   flac  0.5759  wsp2009-12-31d03t03.flac
    10:18.55      109144604 B   ---   --   ---xx   flac  0.5502  wsp2009-12-31d03t04.flac
     5:46.11       61060316 B   ---   --   ---xx   flac  0.5741  wsp2009-12-31d03t05.flac
     3:15.63       34546220 B   ---   --   ---xx   flac  0.4442  wsp2009-12-31d03t06.flac
     5:29.25       58094444 B   ---   --   ---xx   flac  0.5605  wsp2009-12-31d03t07.flac
     4:26.57       47056508 B   ---   --   ---xx   flac  0.4732  wsp2009-12-31d03t08.flac
     4:18.22       45562988 B   ---   --   ---xx   flac  0.5338  wsp2009-12-31d03t09.flac
     8:12.29       86857052 B   ---   --   ---xx   flac  0.5295  wsp2009-12-31d03t10.flac
     2:50.16       30025676 B   ---   --   ---xx   flac  0.5398  wsp2009-12-31d03t11.flac
     6:36.29       69922652 B   ---   --   ---xx   flac  0.5572  wsp2009-12-31d03t12.flac
     5:19.02       56276348 B   ---   --   ---xx   flac  0.5363  wsp2009-12-31d04t01.flac
     7:17.63       77235020 B   ---   --   ---xx   flac  0.5381  wsp2009-12-31d04t02.flac
     9:02.22       95660588 B   ---   --   ---xx   flac  0.5692  wsp2009-12-31d04t03.flac
     6:31.60       69113564 B   ---   --   ---xx   flac  0.5752  wsp2009-12-31d04t04.flac
     4:01.14       42545372 B   ---   --   ---xx   flac  0.5428  wsp2009-12-31d04t05.flac
     4:17.43       45435980 B   ---   --   ---xx   flac  0.5841  wsp2009-12-31d04t06.flac
     1:16.06       13420556 B   ---   --   ---xx   flac  0.3829  wsp2009-12-31d04t07.flac
     3:34.36       37834316 B   ---   --   ---xx   flac  0.4860  wsp2009-12-31d04t08.flac
     3:49.22       40447388 B   ---   --   ---xx   flac  0.5253  wsp2009-12-31d04t09.flac
     9:47.04      103556252 B   ---   --   ---xx   flac  0.5700  wsp2009-12-31d04t10.flac
   244:39.53     2589502192 B                            0.5267  (44 files)








More information about the bittorrent mailing list