[bittorrent] Tyler Neal Band The Northside Tavern Atlanta, Georgia 9/29/2021 (Z-Man Schoeps CCM4V'S FOB)

Automated Mailer noreply-bt.e at etree.org
Thu Sep 30 19:50:55 UTC 2021


Band:           Other
Torrent Name:   Tyler Neal Band The Northside Tavern Atlanta, Georgia 9/29/2021 (Z-Man Schoeps CCM4V'S FOB)
Uploaded by:    zmanatl
DB Link:        
Details:        http://bt.etree.org/details.php?id=614011

Contact the seeder at http://db.etree.org/zmanatl

If the link to this show does not work, it was probably removed for
being non-trade-friendly.

Description / text file:
-------------------------
Tyler Neal Band
The Northside Tavern
Atlanta, Georgia
9/29/2021 

Source: Schoeps CCM4V'S>Lunatec V2>Sound Devices 722 (24/44.1)
FOB/DFC/KFC/ZFC/AARP 10' From Stage, 6 1/2' High
DSP: Sound Devices 722>Sound Forge 10.0>CD Wave>flac(16)
ID3 Tagged In Foobar 2000
Recorded By: Z-Man
Seeded By: Z-Man
A Team Dirty South Recording

Disc I 

01 Get Out My Life Woman 
02 Fire On The Bayou
03 Down South In New Orleans
04 In Memory Of Elizabeth Reed 
05 Ain't No Sunshine 
06 Rock Me Baby 
07 Cissy Strut

Tyler Neal - Guitar And Vocals
Alex Posey - Bass
Santiago Cristancho - Keyboards And Vocals
Jeff Jani - Drums
Tony Erice - Percussion

tyler2021-09-29d01t01.flac:48d5c3925416f3064063e1c39aca4e57
tyler2021-09-29d01t02.flac:44dae11f9fc8e13b3ee36379df05484e
tyler2021-09-29d01t03.flac:bc27c27e62a5791daade6c3735cf8d96
tyler2021-09-29d01t04.flac:43b886b1d713078f2b8b20b2bc0f67c1
tyler2021-09-29d01t05.flac:612cacb66137315e3625db7af54bedd6
tyler2021-09-29d01t06.flac:f2d898d5e49e06e1ed441352de6a57a4
tyler2021-09-29d01t07.flac:652464745e510ae19afe32b4f21ecd38

 length     expanded size    cdr  WAVE problems  fmt   ratio  filename
     9:09.44       96947132 B   ---   --   ---xx   flac  0.4645  tyler2021-09-29d01t01.flac
    12:30.51      132419996 B   ---   --   ---xx   flac  0.5552  tyler2021-09-29d01t02.flac
     6:21.60       67349564 B   ---   --   ---xx   flac  0.5163  tyler2021-09-29d01t03.flac
    12:59.64      137566172 B   ---   --   ---xx   flac  0.5632  tyler2021-09-29d01t04.flac
     4:40.12       49420268 B   ---   --   ---xx   flac  0.4810  tyler2021-09-29d01t05.flac
     8:05.58       85690460 B   ---   --   ---xx   flac  0.5416  tyler2021-09-29d01t06.flac
     8:07.02       85911548 B   ---   --   ---xx   flac  0.5574  tyler2021-09-29d01t07.flac
    61:54.66      655305140 B                            0.5324  (7 files)






More information about the bittorrent mailing list