[bittorrent] The Hunt House Acoustic Jam The Hunt House Pavilion The Hunt House Marietta, Georgia 9/28/2021 (Z-Man Schoeps CCM4V'S FOB)

Automated Mailer noreply-bt.e at etree.org
Thu Sep 30 15:39:54 UTC 2021


Band:           Other
Torrent Name:   The Hunt House Acoustic Jam The Hunt House Pavilion The Hunt House Marietta, Georgia 9/28/2021 (Z-Man Schoeps CCM4V'S FOB)
Uploaded by:    zmanatl
DB Link:        
Details:        http://bt.etree.org/details.php?id=614007

Contact the seeder at http://db.etree.org/zmanatl

If the link to this show does not work, it was probably removed for
being non-trade-friendly.

Description / text file:
-------------------------
The Hunt House Acoustic Jam
The Hunt House Pavilion
The Hunt House
Marietta, Georgia
9/28/2021 

Source: Schoeps CCM4V'S>Lunatec V2>Sound Devices 722 (24/44.1)
FOB/DFC/KFC/ZFC/AARP Stage Lip, 4 1/2' High
DSP: Sound Devices 722>Sound Forge 10.0>CD Wave>flac(16)
ID3 Tagged In Foobar 2000
Recorded By: Z-Man
Seeded By: Z-Man
A Team Dirty South Recording

Disc I 

01 Instrumental
02 Blue Yodel #9
03 Instrumental
04 Devil Take The Farmer
05 Walkin' Boss
06 Deep Elem Blues
07 Tennessee Waltz
08 The Old Home Place 
09 Angel From Montgomery
10 Comfortably Numb

Pete Charlton - Guitar And Vocals
Alan Dingus - Guitar And Vocals
Bob Newton - Drums And Vocals

hunt2021-09-28d01t01.flac:ebdb05311f27a1e7a223ca2696296a1a
hunt2021-09-28d01t02.flac:79d47ad3ea3fac0df43e2153bbb7b854
hunt2021-09-28d01t03.flac:f72f84efaa87a820497e58ef0248a613
hunt2021-09-28d01t04.flac:95d4ad2d7df3c5b96abe843a8708848e
hunt2021-09-28d01t05.flac:a293fb6c5eb4e9940fe15082bdf48726
hunt2021-09-28d01t06.flac:1a26ab9fffd9685086f54d480f358505
hunt2021-09-28d01t07.flac:ade239976f39bd02152934839b586688
hunt2021-09-28d01t08.flac:2d3bcb194d23349bb9bc7c7674b54c3b
hunt2021-09-28d01t09.flac:f4d4e3ed7c7acc5d76e4479744776f92
hunt2021-09-28d01t10.flac:4960dd8a70a78aee3b080a4c66212bde

length     expanded size    cdr  WAVE problems  fmt   ratio  filename
     1:50.28       19469900 B   ---   --   ---xx   flac  0.4209  hunt2021-09-28d01t01.flac
     4:17.23       45388940 B   ---   --   ---xx   flac  0.4141  hunt2021-09-28d01t02.flac
     2:41.66       28555676 B   ---   --   ---xx   flac  0.5147  hunt2021-09-28d01t03.flac
     4:52.17       51548828 B   ---   --   ---xx   flac  0.5083  hunt2021-09-28d01t04.flac
     4:10.67       44257628 B   ---   --   ---xx   flac  0.5295  hunt2021-09-28d01t05.flac
     4:36.71       48853436 B   ---   --   ---xx   flac  0.5719  hunt2021-09-28d01t06.flac
     3:11.28       33758300 B   ---   --   ---xx   flac  0.5232  hunt2021-09-28d01t07.flac
     5:08.38       54420620 B   ---   --   ---xx   flac  0.5251  hunt2021-09-28d01t08.flac
     4:58.09       52588412 B   ---   --   ---xx   flac  0.4846  hunt2021-09-28d01t09.flac
     4:19.62       45833468 B   ---   --   ---xx   flac  0.5210  hunt2021-09-28d01t10.flac
    40:07.34      424675208 B                            0.5060  (10 files)




More information about the bittorrent mailing list