[bittorrent] Cabinet The Hunt House Pavilion The Hunt House Marietta, Georgia 9/28/2021 (Z-Man Schoeps CCM4V'S FOB)

Automated Mailer noreply-bt.e at etree.org
Wed Sep 29 05:16:12 UTC 2021


Band:           Cabinet
Torrent Name:   Cabinet The Hunt House Pavilion The Hunt House Marietta, Georgia 9/28/2021 (Z-Man Schoeps CCM4V'S FOB)
Uploaded by:    zmanatl
DB Link:        
Details:        http://bt.etree.org/details.php?id=614004

Contact the seeder at http://db.etree.org/zmanatl

If the link to this show does not work, it was probably removed for
being non-trade-friendly.

Description / text file:
-------------------------
Cabinet
The Hunt House Pavilion
The Hunt House
Marietta, Georgia
9/28/2021 

Source: Schoeps CCM4V'S>Lunatec V2>Sound Devices 722 (24/44.1)
FOB/DFC/KFC/ZFC/AARP 6' From Stage, 6' High
DSP: Sound Devices 722>Sound Forge 10.0>CD Wave>flac(16)
ID3 Tagged In Foobar 2000
Recorded By: Z-Man
Seeded By: Z-Man
A Team Dirty South Recording

Disc I 1st Set

01 Machine Gun Kelly
02 Oh Darlin'
03 Pine Billy 
04 Hey Baby
05 Caroline  
06 Po's Reel
07 Goin' Down The Road Feelin' Bad 
08 Wheels  

Disc II 2nd Set

01 #I Must Be In A Good Place Now
02 #Three Days
03 99 Years (And One Dark Day)
04 Instrumental Jam
05 Silver Sun
06 I Went To See The Gypsy
07 Poor Man's Blues
08 Molotov Cocktail Blues
09 Honey, You Don't Know My Mind
10 Susquehanna Breakdown

* Entire Show With Brett Lanier - Electric Guitar And Pedal Steel Guitar (Mickey Coviello was absent for this show)

JP Biondo - Mandolin And Vocals
Pappy Biondo - Banjo, Guitar, And Vocals
Todd Kopec - Fiddle, Turntable, And MIDI
Dylan Skursky - Bass
Brian "Nugget" Gorby - Percussion
Jami Novak - Drums And Vocals

cabinet2021-09-28 II01.flac:fbd4b8935b9a12c1799eb8cab42026ae
cabinet2021-09-28 II02.flac:b9295b22631fa727e142a6551d29345c
cabinet2021-09-28 II03.flac:ed3786f3db61968b4540fb7c0051ea5d
cabinet2021-09-28 II04.flac:77a484be4d5926f8e67d04efb063a8b0
cabinet2021-09-28 II05.flac:ab4d86431e054fdd0d3a6abf236d3bd5
cabinet2021-09-28 II06.flac:96420643ba7e8864f57b375728c5df4a
cabinet2021-09-28 II07.flac:8bf404509fdbec7a68350d9672245c4a
cabinet2021-09-28 II08.flac:ff2be248927cc72906a79642a22c9241
cabinet2021-09-28 II09.flac:6e1779ebfdd89486169579cf2f19c8ed
cabinet2021-09-28 II10.flac:2fb4df24373faeca534816aeb4595b86
cabinet2021-09-28d01t01.flac:7815a1e51f5d25fab04e71654066c88b
cabinet2021-09-28d01t02.flac:0acb34dd6769aafe2001121108589072
cabinet2021-09-28d01t03.flac:b45361f15334e3299d26201fdf3e1e7c
cabinet2021-09-28d01t04.flac:478b0e77e839ca7f3fdeac1b8896aa00
cabinet2021-09-28d01t05.flac:8ec06d463dfe4058cc0b53b1a1c976d2
cabinet2021-09-28d01t06.flac:842077c4b2e2572293add2f0d880cbe8
cabinet2021-09-28d01t07.flac:25e1033149df0b3447abd91df8e92ddf
cabinet2021-09-28d01t08.flac:9a44c69bd5fb8721935421474444311f

 length     expanded size    cdr  WAVE problems  fmt   ratio  filename
     3:40.17       38848028 B   ---   --   ---xx   flac  0.3998  cabinet2021-09-28 II01.flac
     4:29.49       47566892 B   ---   --   ---xx   flac  0.3704  cabinet2021-09-28 II02.flac
     3:20.19       35324732 B   ---   --   ---xx   flac  0.5066  cabinet2021-09-28 II03.flac
     1:46.22       18750188 B   ---   --   ---xx   flac  0.4392  cabinet2021-09-28 II04.flac
    10:22.01      109723196 B   ---   --   ---xx   flac  0.5367  cabinet2021-09-28 II05.flac
     5:54.45       62551484 B   ---   --   ---xx   flac  0.5273  cabinet2021-09-28 II06.flac
     5:42.17       60368828 B   ---   --   ---xx   flac  0.5245  cabinet2021-09-28 II07.flac
     8:02.06       85038956 B   ---   --   ---xx   flac  0.5109  cabinet2021-09-28 II08.flac
     4:35.19       48554732 B   ---   --   ---xx   flac  0.5397  cabinet2021-09-28 II09.flac
     8:22.10       88576364 B   ---   --   ---xx   flac  0.5824  cabinet2021-09-28 II10.flac
     4:49.25       51038444 B   ---   --   ---xx   flac  0.4844  cabinet2021-09-28d01t01.flac
     4:42.13       49775420 B   ---   --   ---xx   flac  0.4935  cabinet2021-09-28d01t02.flac
     3:59.30       42230204 B   ---   --   ---xx   flac  0.5760  cabinet2021-09-28d01t03.flac
     5:06.55       54107804 B   ---   --   ---xx   flac  0.5054  cabinet2021-09-28d01t04.flac
     7:54.52       83735948 B   ---   --   ---xx   flac  0.5439  cabinet2021-09-28d01t05.flac
     5:41.43       60253580 B   ---   --   ---xx   flac  0.5640  cabinet2021-09-28d01t06.flac
     6:54.34       73109612 B   ---   --   ---xx   flac  0.5397  cabinet2021-09-28d01t07.flac
     8:41.66       92059676 B   ---   --   ---xx   flac  0.5597  cabinet2021-09-28d01t08.flac
   104:04.73     1101614088 B                            0.5224  (18 files)







More information about the bittorrent mailing list