[bittorrent] Justin Budreau And Friends (Hostile Takeover) The Moonshadow Tavern Tucker, Georgia 9/27/2021 (Z-Man Schoeps CCM4V'S FOB)

Automated Mailer noreply-bt.e at etree.org
Tue Sep 28 13:56:35 UTC 2021


Band:           Other
Torrent Name:   Justin Budreau And Friends (Hostile Takeover) The Moonshadow Tavern Tucker, Georgia 9/27/2021 (Z-Man Schoeps CCM4V'S FOB)
Uploaded by:    zmanatl
DB Link:        
Details:        http://bt.etree.org/details.php?id=613998

Contact the seeder at http://db.etree.org/zmanatl

If the link to this show does not work, it was probably removed for
being non-trade-friendly.

Description / text file:
-------------------------
Justin Budreau And Friends (Hostile Takeover)
The Moonshadow Tavern
Tucker, Georgia
9/27/2021 

Source: Schoeps CCM4V'S>Lunatec V2>Sound Devices 722 (24/44.1)
FOB/DFC/KFC/ZFC/AARP 10' From Stage, 6 1/2' High
DSP: Sound Devices 722>Sound Forge 10.0>CD Wave>flac(16)
ID3 Tagged In Foobar 2000
Recorded By: Z-Man
Seeded By: Z-Man
A Team Dirty South Recording

Disc I 

01 Greeting By Justin
02 Workin' On A Building >
03 Psycho Killer
04 Just The Two Of Us 
*#The Ain't Sisters:
05 The Walmart Song
06 A Little Higher
07 Walls
08 Reckless 
09 Manik Panik
10 Horses

* With Arrie Bozeman - Electric Guitar And Vocals
# With Barb Carbon - Acoustic Guitar And Vocals

Justin Budreau - Bass And Vocals 
? - Guitar And Vocals
? - Guitar
Kee - Drums

justin2021-09-27d01t01.flac:4a49701c846599532f2d38762c480efa
justin2021-09-27d01t02.flac:86133b93b58c3caff64370562ce1fb82
justin2021-09-27d01t03.flac:4c97ed93586203c1def6a5a225298dca
justin2021-09-27d01t04.flac:34cfa81686e8a69498770d0e12ba5aed
justin2021-09-27d01t05.flac:768c01864de45849fa5a5c0ca98f88d3
justin2021-09-27d01t06.flac:541158db1ce99a3802cd506106963938
justin2021-09-27d01t07.flac:77f941e861dde28305f3be9d6fea89e2
justin2021-09-27d01t08.flac:7a0dc00ad9bdd5a6b06457e294f02496
justin2021-09-27d01t09.flac:46b73af15e08460c003a17e8ccda2da5
justin2021-09-27d01t10.flac:e3f91c40aa81188220e7ea2443c3f124

 length     expanded size    cdr  WAVE problems  fmt   ratio  filename
     0:22.34        3960812 B   ---   --   ---xx   flac  0.2757  justin2021-09-27d01t01.flac
     8:56.47       94660988 B   ---   --   ---xx   flac  0.5517  justin2021-09-27d01t02.flac
     6:12.52       65743148 B   ---   --   ---xx   flac  0.5890  justin2021-09-27d01t03.flac
     7:49.69       82893932 B   ---   --   ---xx   flac  0.4760  justin2021-09-27d01t04.flac
     4:04.68       43201580 B   ---   --   ---xx   flac  0.5634  justin2021-09-27d01t05.flac
     3:43.08       39356060 B   ---   --   ---xx   flac  0.5291  justin2021-09-27d01t06.flac
     3:30.63       37192220 B   ---   --   ---xx   flac  0.5812  justin2021-09-27d01t07.flac
     3:57.43       41907980 B   ---   --   ---xx   flac  0.5182  justin2021-09-27d01t08.flac
     6:09.67       65249228 B   ---   --   ---xx   flac  0.5079  justin2021-09-27d01t09.flac
     5:17.26       55979996 B   ---   --   ---xx   flac  0.5106  justin2021-09-27d01t10.flac
    50:05.27      530145944 B                            0.5314  (10 files)






More information about the bittorrent mailing list