[bittorrent] Trey Anastasio Band Rabbit Rabbit Asheville, North Carolina 9/26/2021 (Z-Man Schoeps CCM4V'S FOB

Automated Mailer noreply-bt.e at etree.org
Mon Sep 27 05:22:31 UTC 2021


Band:           Trey Anastasio
Torrent Name:   Trey Anastasio Band Rabbit Rabbit Asheville, North Carolina 9/26/2021 (Z-Man Schoeps CCM4V'S FOB
Uploaded by:    zmanatl
DB Link:        
Details:        http://bt.etree.org/details.php?id=613988

Contact the seeder at http://db.etree.org/zmanatl

If the link to this show does not work, it was probably removed for
being non-trade-friendly.

Description / text file:
-------------------------
Trey Anastasio Band
Rabbit Rabbit
Asheville, North Carolina
9/26/2021 

Source: Schoeps CCM4V'S>Lunatec V2>Sound Devices 722 (24/44.1)
FOB/DLFC/KFC/ZFC/AARP 125' From Stage, 8 1/2' High
DSP: Sound Devices 722>Sound Forge 10.0>CD Wave>flac(16)
ID3 Tagged In Foobar 2000
Recorded By: Z-Man
Seeded By: Z-Man
A Team Dirty South Recording

Disc I 1st Set

01 In Rounds
02 Everything's Right 
03 No Man In No Man's Land >
04 Olivia
05 Stealing Time From The Faulty Line
06 Steam
07 Push On 'Til The Day

Disc II 2nd Set

01 The Moma Dance
02 I Never Needed You Like This Before
03 Plasma >
04 About To Run
05 Sand >
06 *Carini 

Disc III Encore

01 Trey Banter
02 #Mountains In The Mist
03 #Shade
04 #More
05 First Tube

* With Band Introductions
# Trey Solo Acoustic 

Trey Anastasio - Guitar And Vocals
Russ Lawton - Drums
Dezron Douglas - Bass
Ray Paczkowski - Keyboards
Cyro Baptista - Percussion

trey2021-09-26d01t01.flac:13750a8a9e1f71598f54cf2bf44373eb
trey2021-09-26d01t02.flac:cd3c59b8da091f7a0e88cfa12616d0ce
trey2021-09-26d01t03.flac:5974cff608c8b51f2c04336d13dd24c2
trey2021-09-26d01t04.flac:7b511c5689ef4ecf7d93b1ce6b820b89
trey2021-09-26d01t05.flac:6768fee6175f7a6602b616f1b7feb03e
trey2021-09-26d01t06.flac:897860f8631c5979475e5011d21c5c7d
trey2021-09-26d01t07.flac:fef8d4273840b355647f82c379ccc0af
trey2021-09-26d02t01.flac:74475cd373f36c6cbe4efe68ada44f7b
trey2021-09-26d02t02.flac:bd5bbac4cd0bf397e39996008ff3c1a3
trey2021-09-26d02t03.flac:ab9d5e1eee6caf02eb5f8dd073fd7112
trey2021-09-26d02t04.flac:c15f3802fb2054d735810c76307f8d95
trey2021-09-26d02t05.flac:27a6e6721157e7b1232bcf5ab9e29618
trey2021-09-26d02t06.flac:7f1347aac4479bd810f33dd8a1e3c417
trey2021-09-26d03t01.flac:5d14f081448f52420da6285c6bd00282
trey2021-09-26d03t02.flac:bc0c91ac4eff27e3863c04b01187889a
trey2021-09-26d03t03.flac:3f11eedc68936879f6f3ae08546d4499
trey2021-09-26d03t04.flac:622610993e7a743a8fd5d55a245add6c
trey2021-09-26d03t05.flac:7c415c0d1ff92e79c1bf649cee5ee3ad

   length     expanded size    cdr  WAVE problems  fmt   ratio  filename
    10:11.00      107780444 B   ---   --   ---xx   flac  0.5139  trey2021-09-26d01t01.flac
    15:38.38      165552620 B   ---   --   ---xx   flac  0.5374  trey2021-09-26d01t02.flac
     9:41.27      102551948 B   ---   --   ---xx   flac  0.5339  trey2021-09-26d01t03.flac
     6:23.73       67732940 B   ---   --   ---xx   flac  0.5433  trey2021-09-26d01t04.flac
    11:02.73      116948540 B   ---   --   ---xx   flac  0.5361  trey2021-09-26d01t05.flac
     9:45.55      103323404 B   ---   --   ---xx   flac  0.5300  trey2021-09-26d01t06.flac
     9:09.65       96996524 B   ---   --   ---xx   flac  0.5473  trey2021-09-26d01t07.flac
    20:17.52      214801148 B   ---   --   ---xx   flac  0.5333  trey2021-09-26d02t01.flac
     6:22.71       67551836 B   ---   --   ---xx   flac  0.5438  trey2021-09-26d02t02.flac
    14:33.05      154009004 B   ---   --   ---xx   flac  0.5019  trey2021-09-26d02t03.flac
     7:31.67       79714028 B   ---   --   ---xx   flac  0.5033  trey2021-09-26d02t04.flac
     9:41.19      102533132 B   ---   --   ---xx   flac  0.5481  trey2021-09-26d02t05.flac
    12:42.35      134499164 B   ---   --   ---xx   flac  0.5408  trey2021-09-26d02t06.flac
     0:24.14        4266572 B   ---   --   ---xx   flac  0.3863  trey2021-09-26d03t01.flac
     4:14.04       44815052 B   ---   --   ---xx   flac  0.3817  trey2021-09-26d03t02.flac
     2:52.21       30390236 B   ---   --   ---xx   flac  0.4001  trey2021-09-26d03t03.flac
     4:17.38       45424220 B   ---   --   ---xx   flac  0.4660  trey2021-09-26d03t04.flac
     8:08.21       86132636 B   ---   --   ---xx   flac  0.5516  trey2021-09-26d03t05.flac
   162:59.03     1725023448 B                            0.5239  (18 files)






More information about the bittorrent mailing list