[bittorrent] Anya Hinkle Sierra Nevada Brerwing Company Mills Run, North Carolina 9/25/2021 (Z-Man Schoeps CCM4V'S FOB)

Automated Mailer noreply-bt.e at etree.org
Sun Sep 26 16:45:52 UTC 2021


Band:           Other
Torrent Name:   Anya Hinkle Sierra Nevada Brerwing Company Mills Run, North Carolina 9/25/2021 (Z-Man Schoeps CCM4V'S FOB)
Uploaded by:    zmanatl
DB Link:        
Details:        http://bt.etree.org/details.php?id=613978

Contact the seeder at http://db.etree.org/zmanatl

If the link to this show does not work, it was probably removed for
being non-trade-friendly.

Description / text file:
-------------------------
Anya Hinkle
Sierra Nevada Brerwing Company
Mills Run, North Carolina
9/25/2021 

Source: Schoeps CCM4V'S>Lunatec V2>Sound Devices 722 (24/44.1)
FOB/DFC/KFC/ZFC/AARP 45' From Stage, 6 1/2' High
DSP: Sound Devices 722>Sound Forge 10.0>CD Wave>flac(16)
ID3 Tagged In Foobar 2000
Recorded By: Z-Man
Seeded By: Z-Man
A Team Dirty South Recording

Disc I 1st Set

01 ?
02 The Flying Circus Operator
03 The June Apple
04 Mexico 1995
05 Merciful Dawn
06 Eitel Away 
07 Spanish Pipe Dream

Disc II 2nd Set

01 Banter
02 Squirrel Hunting 
03 What's It Gonna Take To Finally Break These Walls
04 The Ballad
05 Meditation: Beyond The Shores Of Darkness
06 Jesus The Rooster
07 Intros
08 Eden And Her Border Lands
09 Jambalaya
10 The Hangman's Reel
11 ?

Anya Hinkle - Guitar And Vocals
Drew Matulich - Mandolin
Finn McGill
Joe Bass - Bass 

anya2021-09-25d01t01.flac:13329807485a5b486f47f5d2a17167f8
anya2021-09-25d01t02.flac:770d4a0a80a7b4aad0f0ed4b9acf3ac1
anya2021-09-25d01t03.flac:e5e682e85586f1906a4832c8158432f8
anya2021-09-25d01t04.flac:625d64b81be3642c59d3344008c2cc90
anya2021-09-25d01t05.flac:22c8949d4779bc31b0d27d48df322e84
anya2021-09-25d01t06.flac:95c8a62393d9c61de1a706526c061cd2
anya2021-09-25d01t07.flac:009596b7e99182775f78e803ef70dba3
anya2021-09-25d02t01.flac:46874866654f29a117c899b9ab913827
anya2021-09-25d02t02.flac:92aca265e6cdb54da9f48d77c38ba34a
anya2021-09-25d02t03.flac:cdd52a5955409f515f2e8f5ef42286af
anya2021-09-25d02t04.flac:652da37b06afd30b2cf33bedbe92bcdf
anya2021-09-25d02t05.flac:f24a42e2e3b5bb182bf82396ef65e545
anya2021-09-25d02t06.flac:2710de224878cd81fc4187febbfcb7e7
anya2021-09-25d02t07.flac:da6c06df18c1362c5f618d5eff4d5a06
anya2021-09-25d02t08.flac:a34ff6360b5810e23cb3add505c1cdb3
anya2021-09-25d02t09.flac:5363416ba47b8a241fb55058113fe64f
anya2021-09-25d02t10.flac:fb6b41a5566ae8cc0d40f42199988b40
anya2021-09-25d02t11.flac:a2ab5774da167ad2d34051b03252731a

 length     expanded size    cdr  WAVE problems  fmt   ratio  filename
     2:08.30       22649804 B   ---   --   ---xx   flac  0.3481  anya2021-09-25d01t01.flac
     5:04.42       53724428 B   ---   --   ---xx   flac  0.4077  anya2021-09-25d01t02.flac
     3:49.22       40447388 B   ---   --   ---xx   flac  0.4389  anya2021-09-25d01t03.flac
     5:19.32       56346908 B   ---   --   ---xx   flac  0.4202  anya2021-09-25d01t04.flac
     5:36.30       59341004 B   ---   --   ---xx   flac  0.3972  anya2021-09-25d01t05.flac
     4:22.57       46350908 B   ---   --   ---xx   flac  0.3480  anya2021-09-25d01t06.flac
     4:05.63       43366220 B   ---   --   ---xx   flac  0.4550  anya2021-09-25d01t07.flac
     0:52.11        9198716 B   ---   --   ---xx   flac  0.3180  anya2021-09-25d02t01.flac
     4:40.33       49469660 B   ---   --   ---xx   flac  0.4500  anya2021-09-25d02t02.flac
     4:50.51       51275996 B   ---   --   ---xx   flac  0.4303  anya2021-09-25d02t03.flac
     6:42.52       71035148 B   ---   --   ---xx   flac  0.4304  anya2021-09-25d02t04.flac
     5:15.74       55740092 B   ---   --   ---xx   flac  0.3620  anya2021-09-25d02t05.flac
     5:46.07       61050908 B   ---   --   ---xx   flac  0.4629  anya2021-09-25d02t06.flac
     1:59.62       21137468 B   ---   --   ---xx   flac  0.3356  anya2021-09-25d02t07.flac
     6:26.72       68259788 B   ---   --   ---xx   flac  0.4197  anya2021-09-25d02t08.flac
     5:05.40       53896124 B   ---   --   ---xx   flac  0.4630  anya2021-09-25d02t09.flac
     3:49.28       40461500 B   ---   --   ---xx   flac  0.4863  anya2021-09-25d02t10.flac
     8:49.48       93428540 B   ---   --   ---xx   flac  0.4120  anya2021-09-25d02t11.flac
    84:46.04      897180600 B                            0.4188  (18 files)








More information about the bittorrent mailing list