[bittorrent] Joe Russo's Almost Dead The Salvage Station Asheville, North Carolina 9/25/2021 (Z-Man Schoeps CCM4V'S FOB)

Automated Mailer noreply-bt.e at etree.org
Sun Sep 26 06:32:04 UTC 2021


Band:           Joe Russo's Almost Dead
Torrent Name:   Joe Russo's Almost Dead The Salvage Station Asheville, North Carolina 9/25/2021 (Z-Man Schoeps CCM4V'S FOB)
Uploaded by:    zmanatl
DB Link:        
Details:        http://bt.etree.org/details.php?id=613976

Contact the seeder at http://db.etree.org/zmanatl

If the link to this show does not work, it was probably removed for
being non-trade-friendly.

Description / text file:
-------------------------
Joe Russo's Almost Dead
The Salvage Station
Asheville, North Carolina
9/25/2021 

Source: Schoeps CCM4V'S>Lunatec V2>Sound Devices 722 (24/44.1)
FOB/DFC/KFC/ZFC/AARP 75' From Stage, 22' Split, 8' High
DSP: Sound Devices 722>Sound Forge 10.0>CD Wave>flac(16)
ID3 Tagged In Foobar 2000
Recorded By: Z-Man
Seeded By: Z-Man
A Team Dirty South Recording

Disc I 1st Set

01 *Only Daddy That'll Walk The Line >
02 Cassidy >
03 Jam >
04 Eyes Of The World >
05 Loose Lucy >
06 #Dancin' In The Street
07 Band Introductions

Disc II 2nd Set

01 The Other one >
02 Jam >
03 Reuben And Cherise > 
04 Throwin' Stones >
05 Big Railroad Blues >
06 @Throwin' Stones 
07 Jam >
08 ^Bird Song >
09 The Other One >
10 +Here Comes Sunshine >
11 Turn On Your Lovelight 
12 Band Introductions
Encore:
13 Joe Banter
14 $Quinn The Eskimo

* With I Know You Rider Riffs At The 13:48 Mark
# With Loose Lucy Riffs
@ With Reuben And Cherise And That's All Riffs
^ With Let It Grow Riffs At The 7:38 Mark
+ With Unbroken Chain Riffs
$ With Here Comes Sunshine Riffs

Joe Russo - Drums And Vocals
Tom Hamilton - Guitar And Vocals
Scott Metzger - Guitar And Vocals
Dave Dreiwitz - Bass And Vocals
Marco Benevento - Keyboards And Vocals

jrad2021-09-25d01t01.flac:101757897228e80750b5669a6e8e6aea
jrad2021-09-25d01t02.flac:5b748de4e30e3e9d2e63eacb7a5a7bff
jrad2021-09-25d01t03.flac:8d78550a10d329294d4fa516b2216041
jrad2021-09-25d01t04.flac:11bb6289b90db6309b508260da77155a
jrad2021-09-25d01t05.flac:fc5e978c979ddbb355383f4867b26c78
jrad2021-09-25d01t06.flac:3a43bc7af4c3b5eda5996b952d93b925
jrad2021-09-25d01t07.flac:8c0760ea65ead965b409be410f07a553
jrad2021-09-25d02t01.flac:247d5c9266c73de327303478d410d303
jrad2021-09-25d02t02.flac:d7ecbb9bf983634f67484e0f30f6eb4b
jrad2021-09-25d02t03.flac:2a36b197a7c3633fa05a0d24b25ece62
jrad2021-09-25d02t04.flac:2fa695e648f34fc719a1f4c1d0f9feba
jrad2021-09-25d02t05.flac:55eecde55255d0cbf845f4c51d7c553f
jrad2021-09-25d02t06.flac:e5630a61bf84d8936a51f067b550baeb
jrad2021-09-25d02t07.flac:43d68d8fc984149d98f4a35b0db7144b
jrad2021-09-25d02t08.flac:33860f54dfa8caed62cf166067a20c1c
jrad2021-09-25d02t09.flac:b257e2a95874273f1db98db639879b0f
jrad2021-09-25d02t10.flac:205ab91f9aa7b7a37b04220f5500330e
jrad2021-09-25d02t11.flac:87eca7d2a0a96ccd4c087322a383994b
jrad2021-09-25d02t12.flac:7313bf6328e3cce47775864f2b007867
jrad2021-09-25d02t13.flac:404952bab334badb675a2cded1507b8b
jrad2021-09-25d02t14.flac:bc9d7b1b99c6c9a81dd47605f4eef479

length     expanded size    cdr  WAVE problems  fmt   ratio  filename
    14:10.18      149982380 B   ---   --   ---xx   flac  0.2477  jrad2021-09-25d01t01.flac
     6:00.26       63565196 B   ---   --   ---xx   flac  0.2469  jrad2021-09-25d01t02.flac
    10:35.27      112077548 B   ---   --   ---xx   flac  0.2311  jrad2021-09-25d01t03.flac
    21:12.55      224510204 B   ---   --   ---xx   flac  0.2488  jrad2021-09-25d01t04.flac
    12:08.68      128579180 B   ---   --   ---xx   flac  0.2345  jrad2021-09-25d01t05.flac
    15:00.17      158800028 B   ---   --   ---xx   flac  0.2490  jrad2021-09-25d01t06.flac
     1:08.20       12042284 B   ---   --   ---xx   flac  0.2041  jrad2021-09-25d01t07.flac
    10:48.52      114429548 B   ---   --   ---xx   flac  0.2613  jrad2021-09-25d02t01.flac
     6:32.38       69238220 B   ---   --   ---xx   flac  0.2148  jrad2021-09-25d02t02.flac
    10:02.02      106197548 B   ---   --   ---xx   flac  0.2599  jrad2021-09-25d02t03.flac
     6:11.44       65547932 B   ---   --   ---xx   flac  0.2548  jrad2021-09-25d02t04.flac
     2:59.60       31716764 B   ---   --   ---xx   flac  0.2738  jrad2021-09-25d02t05.flac
    11:52.41      125693276 B   ---   --   ---xx   flac  0.2201  jrad2021-09-25d02t06.flac
     4:32.07       47997308 B   ---   --   ---xx   flac  0.1920  jrad2021-09-25d02t07.flac
     8:33.52       90615548 B   ---   --   ---xx   flac  0.2308  jrad2021-09-25d02t08.flac
     1:51.56       19712156 B   ---   --   ---xx   flac  0.2740  jrad2021-09-25d02t09.flac
     8:44.04       92443052 B   ---   --   ---xx   flac  0.2455  jrad2021-09-25d02t10.flac
     9:44.46      103125836 B   ---   --   ---xx   flac  0.2605  jrad2021-09-25d02t11.flac
     0:18.60        3316364 B   ---   --   ---xx   flac  0.2232  jrad2021-09-25d02t12.flac
     0:36.53        6475100 B   ---   --   ---xx   flac  0.1896  jrad2021-09-25d02t13.flac
     7:08.18       75541580 B   ---   --   ---xx   flac  0.2477  jrad2021-09-25d02t14.flac
   170:13.14     1801607052 B                            0.2431  (21 files)






More information about the bittorrent mailing list