[bittorrent] Trey Anastasio Band 2021-09-18 Leader Bank Pavilion Boston, MA Schoeps mk41v>cmc1k>Sonosax SX-R4+ **1644**

Automated Mailer noreply-bt.e at etree.org
Sun Sep 26 03:48:27 UTC 2021


Band:           Trey Anastasio
Torrent Name:   Trey Anastasio Band 2021-09-18 Leader Bank Pavilion Boston, MA Schoeps mk41v>cmc1k>Sonosax SX-R4+ **1644**
Uploaded by:    andyjah
DB Link:        
Details:        http://bt.etree.org/details.php?id=613974

Contact the seeder at http://db.etree.org/andyjah

If the link to this show does not work, it was probably removed for
being non-trade-friendly.

Description / text file:
-------------------------
Trey Anastasio Band
2021-09-18
Leader Bank Pavilion
Boston, MA

dfc back of sbd
20cm PAS 

Schoeps mk41v>cmc1k>Sonosax SX-R4+

Sonosax SX-R4+>sd-xc card>Imac>Audacity(tracking,normalize,fades)>Sony Soundforge Convrt(resample(izotope,highest settings)/dither(mbit+/ultra, high dither)to 16 bit/44.1k)>XAct(FLAC 8,ffp,fix sbe)

Recorded,transferred and seeded by Andy Murray

Set 1
01 Shine
02 Blaze On
03 Magilla
04 Cayman Review
05 Sand
06 Valentine
07 46 Days
08 Push on Til' the Day

Set 2
01 Carini
02 Plasma
03 Pigtail
04 Alaska
05 Mozambique
06 Money, Love and Change
07 crowd
Encore:
08 Show of Life
09 About to Run

Band:
Trey Anastasio - Guitar, Vocals
Russ Lawton - Drums
Dezron Douglas - Bass
Ray Paczkowski - Keyboards
Cyro Baptista - Percussion
Natalie Cressman - Trombone, Vocals
Jennifer Hartswick - Trumpet, Vocals
Jeff Cressman - Trombone

;flac fingerprints generated by xACT 2.38 on 2021-09-25 04:15:55 +0000

tab2021-09-18.mk41v.sxr4+.1644.s1t01.flac:2bda0c1d70f2cbced80e0a45ec0113a4
tab2021-09-18.mk41v.sxr4+.1644.s1t02.flac:a44fec9a2c5697320ac29bd6abc731e6
tab2021-09-18.mk41v.sxr4+.1644.s1t03.flac:992eb844fc1208674c1333d3f7796a38
tab2021-09-18.mk41v.sxr4+.1644.s1t04.flac:d2e4e05cc659628f77611f9c1919226a
tab2021-09-18.mk41v.sxr4+.1644.s1t05.flac:624964736cda5d69cba792146cc2321e
tab2021-09-18.mk41v.sxr4+.1644.s1t06.flac:fb80fed2ba730ad48a734b9bf7adc19b
tab2021-09-18.mk41v.sxr4+.1644.s1t07.flac:9ef4a6b83bea006c21478de7c4f2e2b7
tab2021-09-18.mk41v.sxr4+.1644.s1t08.flac:71d8032c9040735fbf8d33c605c3ee25
tab2021-09-18.mk41v.sxr4+.1644.s2t01.flac:b8f267c31c5ea34b7901835bbb99e647
tab2021-09-18.mk41v.sxr4+.1644.s2t02.flac:d52cde26f0b9b38136c262a9563a8ce5
tab2021-09-18.mk41v.sxr4+.1644.s2t03.flac:26c62422fb8929a91c7869f554f42192
tab2021-09-18.mk41v.sxr4+.1644.s2t04.flac:57f571ee8bd577e57437c63ea501e6fb
tab2021-09-18.mk41v.sxr4+.1644.s2t05.flac:174329ea86e6821aa3a8c2f49c4ae121
tab2021-09-18.mk41v.sxr4+.1644.s2t06.flac:42d415368781304697797bc02fc9a5b3
tab2021-09-18.mk41v.sxr4+.1644.s2t07.flac:26d81913f3e857c39d5b2b0451c119af
tab2021-09-18.mk41v.sxr4+.1644.s2t08.flac:e4e87d1c242a2c51b4235e2a26c09b61
tab2021-09-18.mk41v.sxr4+.1644.s2t09.flac:cfb21106f36841b58bf224aaacd61474

    length     expanded size    cdr  WAVE problems  fmt   ratio  filename
     7:26.09       78695612 B   ---   --   -----    wav  1.0000  tab2021-09-18.mk41v.sxr4+.1644.s1t01.wav
    12:18.00      130183244 B   ---   --   -----    wav  1.0000  tab2021-09-18.mk41v.sxr4+.1644.s1t02.wav
     4:39.22       49267388 B   ---   --   -----    wav  1.0000  tab2021-09-18.mk41v.sxr4+.1644.s1t03.wav
     8:03.22       85252988 B   ---   --   -----    wav  1.0000  tab2021-09-18.mk41v.sxr4+.1644.s1t04.wav
    11:34.24      122478092 B   ---   --   -----    wav  1.0000  tab2021-09-18.mk41v.sxr4+.1644.s1t05.wav
     6:04.62       64355468 B   ---   --   -----    wav  1.0000  tab2021-09-18.mk41v.sxr4+.1644.s1t06.wav
     9:36.11      101632316 B   ---   --   -----    wav  1.0000  tab2021-09-18.mk41v.sxr4+.1644.s1t07.wav
     8:23.23       88783340 B   ---   --   -----    wav  1.0000  tab2021-09-18.mk41v.sxr4+.1644.s1t08.wav
    11:38.42      123226028 B   ---   --   -----    wav  1.0000  tab2021-09-18.mk41v.sxr4+.1644.s2t01.wav
     9:55.63      105106220 B   ---   --   -----    wav  1.0000  tab2021-09-18.mk41v.sxr4+.1644.s2t02.wav
    10:46.11      113980316 B   ---   --   -----    wav  1.0000  tab2021-09-18.mk41v.sxr4+.1644.s2t03.wav
    10:55.55      115671404 B   ---   --   -----    wav  1.0000  tab2021-09-18.mk41v.sxr4+.1644.s2t04.wav
     4:00.12       42364268 B   ---   --   -----    wav  1.0000  tab2021-09-18.mk41v.sxr4+.1644.s2t05.wav
    11:44.04      124195052 B   ---   --   -----    wav  1.0000  tab2021-09-18.mk41v.sxr4+.1644.s2t06.wav
     2:55.68       31029980 B   ---   --   -----    wav  1.0000  tab2021-09-18.mk41v.sxr4+.1644.s2t07.wav
     5:11.22       54912188 B   ---   --   -----    wav  1.0000  tab2021-09-18.mk41v.sxr4+.1644.s2t08.wav
     8:02.60       85165964 B   ---   --   -----    wav  1.0000  tab2021-09-18.mk41v.sxr4+.1644.s2t09.wav
   143:15.60     1516299868 B                            1.0000  (17 files)




More information about the bittorrent mailing list