[bittorrent] Trey Anastasio Band 2021-09-17 Thompson's Point Portland, ME fob Schoeps mk22>cmc1k>Sonosax SX-R4+ **1644**

Automated Mailer noreply-bt.e at etree.org
Sun Sep 26 03:44:19 UTC 2021


Band:           Trey Anastasio
Torrent Name:   Trey Anastasio Band 2021-09-17 Thompson's Point Portland, ME fob Schoeps mk22>cmc1k>Sonosax SX-R4+ **1644**
Uploaded by:    andyjah
DB Link:        
Details:        http://bt.etree.org/details.php?id=613972

Contact the seeder at http://db.etree.org/andyjah

If the link to this show does not work, it was probably removed for
being non-trade-friendly.

Description / text file:
-------------------------
Trey Anastasio Band
2021-09-17
Thompson's Point
Portland, ME

fob 30’ from stage dfc
21cm 110 degrees

Schoeps mk22>cmc1k>Sonosax SX-R4+

Sonosax SX-R4+>sd-xc card>Imac>Audacity(tracking,normalize,fades)>Sony Soundforge Convrt(resample(izotope,highest settings)/dither(mbit+/ultra, high dither)to 16 bit/44.1k)>XAct(FLAC 8,ffp,fix sbe)

Recorded,transferred and seeded by Andy Murray

Set 1
01 First Tube
02 Alive Again
03 Camel Walk
04 Ocelot
05 Love Its What We Are
06 Olivia
07 Set Your Soul Free
08 Dark and Down
09 Mozambique
10 Rise/Come Together

Set 2
01 Everything's Right
02 Gotta Gibbo
03 Curlew's Call
04 Ether Sunday
05 Burlap Sack & Pumps
06 The Moma Dance
07 I Never Needed You Like This Before
08 Twist
09 crowd
Encore:
10 Life Beyond the Dream
11 Tuesday

Band:
Trey Anastasio - Guitar, Vocals
Russ Lawton - Drums
Dezron Douglas - Bass
Ray Paczkowski - Keyboards
Cyro Baptista - Percussion
Natalie Cressman - Trombone, Vocals
Jennifer Hartswick - Trumpet, Vocals
Cochemea 'Cheme' Gastelum - Sax

;flac fingerprints generated by xACT 2.38 on 2021-09-24 20:44:00 +0000

tab2021-09-17.mk22.sxr4+.1644.s1t01.flac:f4ee4bd7e284ee5781b6c401f452ff49
tab2021-09-17.mk22.sxr4+.1644.s1t02.flac:d31f2d5f3622e618749666b93d032c2e
tab2021-09-17.mk22.sxr4+.1644.s1t03.flac:2fba7c785386cdc58122b893fd11bf36
tab2021-09-17.mk22.sxr4+.1644.s1t04.flac:85055c500df87e06ec7c5352b58f5d36
tab2021-09-17.mk22.sxr4+.1644.s1t05.flac:a0ca69e287e2f2784c983d691903d540
tab2021-09-17.mk22.sxr4+.1644.s1t06.flac:2cd2774dd02d191cb06cb3594d3c9cf5
tab2021-09-17.mk22.sxr4+.1644.s1t07.flac:6a1e21440a6f09b4edb1383e030efc03
tab2021-09-17.mk22.sxr4+.1644.s1t08.flac:f5d1819628ead2aedd9187d3044be68e
tab2021-09-17.mk22.sxr4+.1644.s1t09.flac:f3eb93fe1894b69d19e0f3c5cab8f220
tab2021-09-17.mk22.sxr4+.1644.s1t10.flac:7b36bdaddd91a63ad6007bc33b66d678
tab2021-09-17.mk22.sxr4+.1644.s2t01.flac:cf4a8974de10f28bce8beb687ad4beb6
tab2021-09-17.mk22.sxr4+.1644.s2t02.flac:e9d4d652d0a98370845841bd37755a6f
tab2021-09-17.mk22.sxr4+.1644.s2t03.flac:90a510c6e0c9cbcde534dfc89f09f35d
tab2021-09-17.mk22.sxr4+.1644.s2t04.flac:1d96f3d2f3d790560b10465c5650ab6d
tab2021-09-17.mk22.sxr4+.1644.s2t05.flac:02e4b7bfa76760b591ffe14033ae83a4
tab2021-09-17.mk22.sxr4+.1644.s2t06.flac:0cd8f2f08dca13c2b34635863ab0eef0
tab2021-09-17.mk22.sxr4+.1644.s2t07.flac:144167e5a9f4b528e56b023b2966b273
tab2021-09-17.mk22.sxr4+.1644.s2t08.flac:4e4b7415316d182907ddbeb517cdde5c
tab2021-09-17.mk22.sxr4+.1644.s2t09.flac:c2aeaa25a0ea856f812b24cd4f52f4a6
tab2021-09-17.mk22.sxr4+.1644.s2t10.flac:7954233c66b47b95734e0fa8e89f4d85
tab2021-09-17.mk22.sxr4+.1644.s2t11.flac:890cac96099a6652794d335a812cc013

    length     expanded size    cdr  WAVE problems  fmt   ratio  filename
     7:19.62       77585468 B   ---   --   -----    wav  1.0000  tab2021-09-17.mk22.sxr4+.1644.s1t01.wav
    11:25.17      120874028 B   ---   --   -----    wav  1.0000  tab2021-09-17.mk22.sxr4+.1644.s1t02.wav
     5:56.28       62864300 B   ---   --   -----    wav  1.0000  tab2021-09-17.mk22.sxr4+.1644.s1t03.wav
     9:23.17       99353228 B   ---   --   -----    wav  1.0000  tab2021-09-17.mk22.sxr4+.1644.s1t04.wav
     5:17.41       56015276 B   ---   --   -----    wav  1.0000  tab2021-09-17.mk22.sxr4+.1644.s1t05.wav
     5:13.46       55321436 B   ---   --   -----    wav  1.0000  tab2021-09-17.mk22.sxr4+.1644.s1t06.wav
     9:28.63      100343420 B   ---   --   -----    wav  1.0000  tab2021-09-17.mk22.sxr4+.1644.s1t07.wav
     7:03.54       74744252 B   ---   --   -----    wav  1.0000  tab2021-09-17.mk22.sxr4+.1644.s1t08.wav
     4:11.67       44434028 B   ---   --   -----    wav  1.0000  tab2021-09-17.mk22.sxr4+.1644.s1t09.wav
     5:54.58       62582060 B   ---   --   -----    wav  1.0000  tab2021-09-17.mk22.sxr4+.1644.s1t10.wav
    15:47.25      167109644 B   ---   --   -----    wav  1.0000  tab2021-09-17.mk22.sxr4+.1644.s2t01.wav
    11:18.55      119728604 B   ---   --   -----    wav  1.0000  tab2021-09-17.mk22.sxr4+.1644.s2t02.wav
    13:34.72      143758988 B   ---   --   -----    wav  1.0000  tab2021-09-17.mk22.sxr4+.1644.s2t03.wav
     7:14.71       76724636 B   ---   --   -----    wav  1.0000  tab2021-09-17.mk22.sxr4+.1644.s2t04.wav
     9:45.32      103269308 B   ---   --   -----    wav  1.0000  tab2021-09-17.mk22.sxr4+.1644.s2t05.wav
     6:47.64       71945372 B   ---   --   -----    wav  1.0000  tab2021-09-17.mk22.sxr4+.1644.s2t06.wav
     5:29.43       58136780 B   ---   --   -----    wav  1.0000  tab2021-09-17.mk22.sxr4+.1644.s2t07.wav
     9:52.74      104602892 B   ---   --   -----    wav  1.0000  tab2021-09-17.mk22.sxr4+.1644.s2t08.wav
     2:38.34       27951212 B   ---   --   -----    wav  1.0000  tab2021-09-17.mk22.sxr4+.1644.s2t09.wav
     7:54.25       83672444 B   ---   --   -----    wav  1.0000  tab2021-09-17.mk22.sxr4+.1644.s2t10.wav
     7:17.63       77235020 B   ---   --   -----    wav  1.0000  tab2021-09-17.mk22.sxr4+.1644.s2t11.wav
   168:57.36     1788252396 B                            1.0000  (21 files)






More information about the bittorrent mailing list