[bittorrent] Joe Russo's Almost Dead The Salvage Station Asheville, North Carolina 9/24/2021 (Z-Man Schoeps CCM4V'S FOB)

Automated Mailer noreply-bt.e at etree.org
Sat Sep 25 05:41:57 UTC 2021


Band:           Joe Russo's Almost Dead
Torrent Name:   Joe Russo's Almost Dead The Salvage Station Asheville, North Carolina 9/24/2021 (Z-Man Schoeps CCM4V'S FOB)
Uploaded by:    zmanatl
DB Link:        
Details:        http://bt.etree.org/details.php?id=613965

Contact the seeder at http://db.etree.org/zmanatl

If the link to this show does not work, it was probably removed for
being non-trade-friendly.

Description / text file:
-------------------------
Joe Russo's Almost Dead
The Salvage Station
Asheville, North Carolina
9/24/2021 

Source: Schoeps CCM4V'S>Lunatec V2>Sound Devices 722 (24/44.1)
FOB/DLFC/KFC/ZFC/AARP 75' From Stage, 8' High
DSP: Sound Devices 722>Sound Forge 10.0>CD Wave>flac(16)
ID3 Tagged In Foobar 2000
Recorded By: Z-Man
Seeded By: Z-Man
A Team Dirty South Recording

Disc I 1st Set

01 Greeting By Joe
02 Jam >
03 Might As Well >
04 Jam >
05 Hell In A Bucket >
06 Jam >
07 Loser >
08 The Eleven >
09 Beat It On Down The Line >
10 Cumberland Blues 
11 Band Introductions/Outro

Disc II 2nd Set

01 Magnificent Sanctuary Band >
02 Casey Jones 
03 Brown-Eyed Women >
04 Jam >
05 Lost Sailor >
06 Saint Of Circumstance 
07 So Many Roads >
08 Not Fade Away >
09 Crowd Chants Not Fade Away
Encore:
10 Everyone Knows This Is Nowhere
11 Band Introductions

Joe Russo - Drums And Vocals
Tom Hamilton - Guitar And Vocals
Scott Metzger - Guitar And Vocals
Dave Dreiwitz - Bass And Vocals
Marco Benevento - Keyboards And Vocals

jrad2021-09-24d01t01.flac:de655b2440e7400a83bad2079ffcec16
jrad2021-09-24d01t02.flac:ad37237debd6cb0a703976762d21f9e6
jrad2021-09-24d01t03.flac:e5a1c53810084f7581f61f4b2bdd474d
jrad2021-09-24d01t04.flac:39e731e8f07e8630b0d5a29cf2f59a12
jrad2021-09-24d01t05.flac:214ec9bf7acf6c05ad5d111e43adb52f
jrad2021-09-24d01t06.flac:7c35c780021bf2b744766845e79bfa30
jrad2021-09-24d01t07.flac:59ef7a7c854439d05c7654bec1222679
jrad2021-09-24d01t08.flac:47eb0830f9e46c9fc8a6cc2f665c9f93
jrad2021-09-24d01t09.flac:d6904053d957485c97b356def50c5ab4
jrad2021-09-24d01t10.flac:12338518ecab68b769ee030f474dfa13
jrad2021-09-24d01t11.flac:a350dcda40dfe30a1dd8dd39a5908ea1
jrad2021-09-24d02t01.flac:253175f59c00217544a89ddfafd71250
jrad2021-09-24d02t02.flac:5e5aabbfecaa793117e86b5c67a97578
jrad2021-09-24d02t03.flac:1d5a34bd3e2f8062f89eb59db88c47e2
jrad2021-09-24d02t04.flac:6fbc6e0cc5aaabda73acd6d44f0d5567
jrad2021-09-24d02t05.flac:72d405d0c103fd7fea30e0846ad4b1bf
jrad2021-09-24d02t06.flac:cf29f741e08cb8b889c4426e8486d7cb
jrad2021-09-24d02t07.flac:6bdbc94aaca4832fe56f30eedf1cd96c
jrad2021-09-24d02t08.flac:28d0316e6328d4b6ff739fc1cdeec4e9
jrad2021-09-24d02t09.flac:db79d070ae28840abbd541be987af276
jrad2021-09-24d02t10.flac:4535cf7cc6859e577a70480cb344824a
jrad2021-09-24d02t11.flac:6dc7a6dedb24e5efc1dc8bc218e9b1fb

 length     expanded size    cdr  WAVE problems  fmt   ratio  filename
     0:54.65        9678524 B   ---   --   ---xx   flac  0.3353  jrad2021-09-24d01t01.flac
     5:07.68       54314780 B   ---   --   ---xx   flac  0.4540  jrad2021-09-24d01t02.flac
     6:17.29       66571052 B   ---   --   ---xx   flac  0.5087  jrad2021-09-24d01t03.flac
     6:35.40       69772124 B   ---   --   ---xx   flac  0.4902  jrad2021-09-24d01t04.flac
     7:15.26       76795196 B   ---   --   ---xx   flac  0.5002  jrad2021-09-24d01t05.flac
     6:43.11       71115116 B   ---   --   ---xx   flac  0.3619  jrad2021-09-24d01t06.flac
    11:09.42      118110428 B   ---   --   ---xx   flac  0.4726  jrad2021-09-24d01t07.flac
    10:26.29      110494652 B   ---   --   ---xx   flac  0.4839  jrad2021-09-24d01t08.flac
     6:15.12       66178268 B   ---   --   ---xx   flac  0.4918  jrad2021-09-24d01t09.flac
    11:47.05      124726604 B   ---   --   ---xx   flac  0.4776  jrad2021-09-24d01t10.flac
     1:15.16       13267676 B   ---   --   ---xx   flac  0.3951  jrad2021-09-24d01t11.flac
    14:10.53      150064700 B   ---   --   ---xx   flac  0.4750  jrad2021-09-24d02t01.flac
     7:15.60       76875164 B   ---   --   ---xx   flac  0.5344  jrad2021-09-24d02t02.flac
     9:42.17      102704828 B   ---   --   ---xx   flac  0.5131  jrad2021-09-24d02t03.flac
     9:10.03       97027100 B   ---   --   ---xx   flac  0.3923  jrad2021-09-24d02t04.flac
     7:52.49       83376092 B   ---   --   ---xx   flac  0.4876  jrad2021-09-24d02t05.flac
    12:33.23      132883340 B   ---   --   ---xx   flac  0.4765  jrad2021-09-24d02t06.flac
    11:27.46      121295036 B   ---   --   ---xx   flac  0.4293  jrad2021-09-24d02t07.flac
     9:10.60       97161164 B   ---   --   ---xx   flac  0.4810  jrad2021-09-24d02t08.flac
     1:15.36       13314716 B   ---   --   ---xx   flac  0.3600  jrad2021-09-24d02t09.flac
     3:58.25       42042044 B   ---   --   ---xx   flac  0.4993  jrad2021-09-24d02t10.flac
     1:06.49       11757692 B   ---   --   ---xx   flac  0.3877  jrad2021-09-24d02t11.flac
   161:31.14     1709526296 B                            0.4697  (22 files)







More information about the bittorrent mailing list