[bittorrent] The Sweet Lillies The Hunt House Pavilion The Hunt House Marietta, Georgia 9/23/2021 (Z-Man Schoeps CCM4V'S FOB)

Automated Mailer noreply-bt.e at etree.org
Fri Sep 24 05:22:31 UTC 2021


Band:           Other
Torrent Name:   The Sweet Lillies The Hunt House Pavilion The Hunt House Marietta, Georgia 9/23/2021 (Z-Man Schoeps CCM4V'S FOB)
Uploaded by:    zmanatl
DB Link:        
Details:        http://bt.etree.org/details.php?id=613962

Contact the seeder at http://db.etree.org/zmanatl

If the link to this show does not work, it was probably removed for
being non-trade-friendly.

Description / text file:
-------------------------
The Sweet Lillies
The Hunt House Pavilion
The Hunt House
Marietta, Georgia
9/23/2021 

Source: Schoeps CCM4V'S>Lunatec V2>Sound Devices 722 (24/44.1)
FOB/DFC/KFC/ZFC/AARP 6' From Stage, 6' High
DSP: Sound Devices 722>Sound Forge 10.0>CD Wave>flac(16)
ID3 Tagged In Foobar 2000
Recorded By: Z-Man
Seeded By: Z-Man
A Team Dirty South Recording

Disc I 

01 Greeting By Julie
02 ?
03 Colorado
04 True Love Of Mine
05 On My Way Back Home
06 Insane In The Brain
07 Thread
08 ?
09 Let Me Clear My Throat 
10 Never Meant To Be
11 In The Dark
12 Bird In The House
13 ?
14 Blood On My Hands
15 It's Tricky

Disc II 

01 Common Ground
02 Seen A Place >
03 I Like Big Butts >
04 Seven Bridges Road >
05 Jam >
06 Angelina Baker 
07 Intergalactic >
08 In The Air Tonight >
09 
10 In The Air Tonight 
11 Breath To Birds
12 Hard Days Night
13 You Were On My Mind This Morning
14 ?
15 Happy Birthday Dustin >
16 Love Your Life >
17 O-o-h Child >
18 Love Your Life > 
19 O-o-h Child 

Julie Gussaroff - Stand-Up Bass And Vocals
Becca Bisque - Viola, Washboard, And Vocals
Dustin Rohleder - Acoustic Guitar And Vocals

thesweet2021-09-23d01t01.flac:8763a84bc02a89b89798e84a0c17ef8a
thesweet2021-09-23d01t02.flac:edc6d5906590aa4fa18c8b785b3fca72
thesweet2021-09-23d01t03.flac:248659b6dc161932f0555da90251eaa9
thesweet2021-09-23d01t04.flac:07031e065557121dc7affa5efc2d567c
thesweet2021-09-23d01t05.flac:0fd0a6da7ae5457d12f3b24e522f97fc
thesweet2021-09-23d01t06.flac:d284a52734b46e908bf4ec51289e1a96
thesweet2021-09-23d01t07.flac:b6d1ef12ea252667e0a6ab1e72d4e68b
thesweet2021-09-23d01t08.flac:565570a8f4a8d4a128fba97db1f31f35
thesweet2021-09-23d01t09.flac:29156ef7c315928a4d6616320d1c1152
thesweet2021-09-23d01t10.flac:4cc72a08614770ff01472c19d55f8aa0
thesweet2021-09-23d01t11.flac:c62d4b5a33d53f834a024f64a7313694
thesweet2021-09-23d01t12.flac:44e33c0595b01cc21f574cd5f4493649
thesweet2021-09-23d01t13.flac:03cf4a25fc04ce2e306f232765b02168
thesweet2021-09-23d01t14.flac:f864504f9836636f24159ba014de9db2
thesweet2021-09-23d01t15.flac:db2cd5a136bd852780cb5ca8f1fd2e3b
thesweet2021-09-23d02t01.flac:6452129c2689228a27da1fdfdae743fa
thesweet2021-09-23d02t02.flac:dc5e404fdc070161b947b36e77888ae3
thesweet2021-09-23d02t03.flac:b3f407c1cbec85aa1e8202037d064f10
thesweet2021-09-23d02t04.flac:b06087be1ff0183a4c0a56ba3aa4e9cf
thesweet2021-09-23d02t05.flac:2eeb1507dfd6f4d9fcb99436d296bd30
thesweet2021-09-23d02t06.flac:16075280807ef62db7bcc71f340610d8
thesweet2021-09-23d02t07.flac:1441b2c0f2cc1fa8540a1f7d0ccf895a
thesweet2021-09-23d02t08.flac:c61f774839fd1cd2f7f1938216c0e096
thesweet2021-09-23d02t09.flac:465c9710c996120711be4cf124905543
thesweet2021-09-23d02t10.flac:ddcaa52c2d1a9c24f18dd59b4f43147d
thesweet2021-09-23d02t11.flac:c0e88c2d255e15c5a314deb667432f04
thesweet2021-09-23d02t12.flac:6f39408c2937a33856a87579ba64ed4e
thesweet2021-09-23d02t13.flac:a168be20842ef40b267da64f311e711b
thesweet2021-09-23d02t14.flac:385a23636ccccb362fc4d276aee3fd52
thesweet2021-09-23d02t15.flac:86dc4057904ebaef24f03ecd5dc69d77
thesweet2021-09-23d02t16.flac:b4facc31933a57236fa737f1287f6968
thesweet2021-09-23d02t17.flac:a9055b4093e5683c3569001e15e74062
thesweet2021-09-23d02t18.flac:da4e39be8eb27446375c850ce6df0a9b
thesweet2021-09-23d02t19.flac:672181efc228f5049a60bcc6db6bd256

 length     expanded size    cdr  WAVE problems  fmt   ratio  filename
     1:03.51       11233196 B   ---   --   ---xx   flac  0.3346  thesweet2021-09-23d01t01.flac
     5:06.62       54124268 B   ---   --   ---xx   flac  0.4852  thesweet2021-09-23d01t02.flac
     3:57.11       41832716 B   ---   --   ---xx   flac  0.5067  thesweet2021-09-23d01t03.flac
     4:31.47       47914988 B   ---   --   ---xx   flac  0.4478  thesweet2021-09-23d01t04.flac
     4:38.08       49058060 B   ---   --   ---xx   flac  0.4790  thesweet2021-09-23d01t05.flac
     4:31.58       47940860 B   ---   --   ---xx   flac  0.4400  thesweet2021-09-23d01t06.flac
     4:02.37       42775868 B   ---   --   ---xx   flac  0.4339  thesweet2021-09-23d01t07.flac
     4:52.40       51602924 B   ---   --   ---xx   flac  0.4364  thesweet2021-09-23d01t08.flac
     3:55.18       41496380 B   ---   --   ---xx   flac  0.4473  thesweet2021-09-23d01t09.flac
     4:58.28       52633100 B   ---   --   ---xx   flac  0.4573  thesweet2021-09-23d01t10.flac
     4:50.70       51320684 B   ---   --   ---xx   flac  0.4564  thesweet2021-09-23d01t11.flac
     5:57.26       63035996 B   ---   --   ---xx   flac  0.4671  thesweet2021-09-23d01t12.flac
     7:43.35       81755564 B   ---   --   ---xx   flac  0.4385  thesweet2021-09-23d01t13.flac
     4:44.25       50156444 B   ---   --   ---xx   flac  0.5186  thesweet2021-09-23d01t14.flac
     3:55.41       41550476 B   ---   --   ---xx   flac  0.4651  thesweet2021-09-23d01t15.flac
     5:04.55       53755004 B   ---   --   ---xx   flac  0.4483  thesweet2021-09-23d02t01.flac
     4:40.54       49519052 B   ---   --   ---xx   flac  0.4396  thesweet2021-09-23d02t02.flac
     1:53.53       20057900 B   ---   --   ---xx   flac  0.5324  thesweet2021-09-23d02t03.flac
     2:17.32       24242108 B   ---   --   ---xx   flac  0.4922  thesweet2021-09-23d02t04.flac
     2:06.51       22346396 B   ---   --   ---xx   flac  0.5703  thesweet2021-09-23d02t05.flac
     3:13.18       34087580 B   ---   --   ---xx   flac  0.5484  thesweet2021-09-23d02t06.flac
     3:21.02       35461148 B   ---   --   ---xx   flac  0.5255  thesweet2021-09-23d02t07.flac
     1:43.29       18237452 B   ---   --   ---xx   flac  0.5190  thesweet2021-09-23d02t08.flac
     2:18.44       24446732 B   ---   --   ---xx   flac  0.5557  thesweet2021-09-23d02t09.flac
     2:44.66       29084876 B   ---   --   ---xx   flac  0.4627  thesweet2021-09-23d02t10.flac
     2:42.66       28732076 B   ---   --   ---xx   flac  0.4812  thesweet2021-09-23d02t11.flac
     4:17.30       45405404 B   ---   --   ---xx   flac  0.4438  thesweet2021-09-23d02t12.flac
     3:43.32       39412508 B   ---   --   ---xx   flac  0.4746  thesweet2021-09-23d02t13.flac
     6:57.74       73732892 B   ---   --   ---xx   flac  0.4688  thesweet2021-09-23d02t14.flac
     1:54.73       20281340 B   ---   --   ---xx   flac  0.4146  thesweet2021-09-23d02t15.flac
     1:22.71       14631836 B   ---   --   ---xx   flac  0.4881  thesweet2021-09-23d02t16.flac
     0:54.15        9560924 B   ---   --   ---xx   flac  0.5057  thesweet2021-09-23d02t17.flac
     0:37.39        6618572 B   ---   --   ---xx   flac  0.4976  thesweet2021-09-23d02t18.flac
     1:46.68       18858380 B   ---   --   ---xx   flac  0.3993  thesweet2021-09-23d02t19.flac
   122:32.04     1296903704 B                            0.4692  (34 files)






More information about the bittorrent mailing list