[bittorrent] The Hunt House Acoustic Jam The Hunt House Patio The Hunt House Marietta, Georgia 9/14/2021 (Z-Man Schoeps CCM4V'S FOB)

Automated Mailer noreply-bt.e at etree.org
Fri Sep 24 02:59:24 UTC 2021


Band:           Other
Torrent Name:   The Hunt House Acoustic Jam The Hunt House Patio The Hunt House Marietta, Georgia 9/14/2021 (Z-Man Schoeps CCM4V'S FOB)
Uploaded by:    zmanatl
DB Link:        
Details:        http://bt.etree.org/details.php?id=613960

Contact the seeder at http://db.etree.org/zmanatl

If the link to this show does not work, it was probably removed for
being non-trade-friendly.

Description / text file:
-------------------------
The Hunt House Acoustic Jam
The Hunt House Patio
The Hunt House
Marietta, Georgia
9/14/2021 

Source: Schoeps CCM4V'S>Lunatec V2>Sound Devices 722 (24/44.1)
FOB/DFC/KFC/ZFC/AARP Stage Lip , 4 1/2' High
DSP: Sound Devices 722>Sound Forge 10.0>CD Wave>flac(16)
ID3 Tagged In Foobar 2000
Recorded By: Z-Man
Seeded By: Z-Man
A Team Dirty South Recording

Disc I 

01 Familyb Tradition
02 *Just Baby
03 Sittin' In Limbo
04 Deep mElem Blues
05 Keep On Rockin' In The Free World
06 Rider In The Rain
07 Crazy Mama
08 The Old Home Place
09 I've Bee All Around This World
10 I Know You Rider
11 Sisters And Brothers
12 My Redneck Friend
13 Honky Tonk Women
14 #This Could Be The Last Time

* First Time Played
# With Green Eggs And Ham

Marc Sommers - Acoustic Guitar And Vocals
Paul Long - Acoustic Guitar And Vocals
Jerry Holsenback - Acoustic Guitar And Vocals
Alan Dingus - Acoustic Guitar And Vocals
Pete Charlton - Acoustic Guitar And Vocals
Bob Newton - Drums, Bass Pedal, And Vocals

thehunt2021-09-14d01t01.flac:28aa1044afd4957af4d1c2e52f0835f3
thehunt2021-09-14d01t02.flac:680eddea59fd28a69560e9b1322109f2
thehunt2021-09-14d01t03.flac:fe45bd0ac443c0ddb933a9afbc807291
thehunt2021-09-14d01t04.flac:b7779f0aad6c403be3768dc378000953
thehunt2021-09-14d01t05.flac:29c90d9b3a89977b80659b872e10f271
thehunt2021-09-14d01t06.flac:15c59f5b76819701b65ba8f4df847e91
thehunt2021-09-14d01t07.flac:1c3fc9cda6f3efe4dc56b522265265b1
thehunt2021-09-14d01t08.flac:2d482163c6680ddbfda63d81ea516a25
thehunt2021-09-14d01t09.flac:8dfe1d5609b4143879a94e939437d711
thehunt2021-09-14d01t10.flac:124ba570855e28cf0fc8d51521a02de7
thehunt2021-09-14d01t11.flac:464a254cbfc33cb62e70a6dd93534ff3
thehunt2021-09-14d01t12.flac:a3b41ac7272e1a29355858587583749e
thehunt2021-09-14d01t13.flac:ceb48c021e67720ff05f8cf5e1605b7b
thehunt2021-09-14d01t14.flac:0cb2c1e0a67a65503953d53691f45ce8

 length     expanded size    cdr  WAVE problems  fmt   ratio  filename
     2:50.34       30068012 B   ---   --   ---xx   flac  0.3799  thehunt2021-09-14d01t01.flac
     4:39.34       49295612 B   ---   --   ---xx   flac  0.4105  thehunt2021-09-14d01t02.flac
     5:33.02       58745948 B   ---   --   ---xx   flac  0.3800  thehunt2021-09-14d01t03.flac
     5:52.58       62229260 B   ---   --   ---xx   flac  0.5104  thehunt2021-09-14d01t04.flac
     7:28.19       79071932 B   ---   --   ---xx   flac  0.4168  thehunt2021-09-14d01t05.flac
     4:55.69       52200332 B   ---   --   ---xx   flac  0.3603  thehunt2021-09-14d01t06.flac
     4:46.28       50516300 B   ---   --   ---xx   flac  0.3779  thehunt2021-09-14d01t07.flac
     3:58.46       42091436 B   ---   --   ---xx   flac  0.4440  thehunt2021-09-14d01t08.flac
     4:30.10       47651564 B   ---   --   ---xx   flac  0.3898  thehunt2021-09-14d01t09.flac
     6:32.18       69191180 B   ---   --   ---xx   flac  0.4961  thehunt2021-09-14d01t10.flac
     6:34.47       69612188 B   ---   --   ---xx   flac  0.4101  thehunt2021-09-14d01t11.flac
     3:11.29       33760652 B   ---   --   ---xx   flac  0.4179  thehunt2021-09-14d01t12.flac
     3:58.18       42025580 B   ---   --   ---xx   flac  0.4087  thehunt2021-09-14d01t13.flac
     5:12.52       55159148 B   ---   --   ---xx   flac  0.5154  thehunt2021-09-14d01t14.flac
    70:04.14      741619144 B                            0.4267  (14 files)




More information about the bittorrent mailing list