[bittorrent] Tyler Neal Band The Northside Tavern Atlanta, Georgia 9/22/2021 (Z-Man Schoeps CCM4V'S FOB)

Automated Mailer noreply-bt.e at etree.org
Thu Sep 23 15:21:35 UTC 2021


Band:           Other
Torrent Name:   Tyler Neal Band The Northside Tavern Atlanta, Georgia 9/22/2021 (Z-Man Schoeps CCM4V'S FOB)
Uploaded by:    zmanatl
DB Link:        
Details:        http://bt.etree.org/details.php?id=613948

Contact the seeder at http://db.etree.org/zmanatl

If the link to this show does not work, it was probably removed for
being non-trade-friendly.

Description / text file:
-------------------------
Tyler Neal Band
The Northside Tavern
Atlanta, Georgia
9/22/2021 

Source: Schoeps CCM4V'S>Lunatec V2>Sound Devices 722 (24/44.1)
FOB/DFC/KFC/ZFC/AARP 10' From Stage, 6 1/2' High
DSP: Sound Devices 722>Sound Forge 10.0>CD Wave>flac(16)
ID3 Tagged In Foobar 2000
Recorded By: Z-Man
Seeded By: Z-Man
A Team Dirty South Recording

Disc I 

01 Percussion Jam
02 Hey Pockey Way >
03 Yes We Can
04 Let The Good Times Roll
05 Oye Como Va
06 Mystery Woman 
07 Drown In My Own Tears
08 Fire On The Bayou
09 *Statesboro Blues

* With Melissa Goehner On Vocals

Tyler Neal - Guitar And Vocals
Alex Posey - Bass 
Santiago Cristancho - Keyboards
Jeff Jani - Drums
Tony Erice - Percussion

tyler2021-09-22d01t01.flac:2387fa4d59d847892e1a415932b2e41b
tyler2021-09-22d01t02.flac:dab2bbd3e457b6383f18edc877cf623e
tyler2021-09-22d01t03.flac:b048ab6b44a4e16053f0d3f9952f84c8
tyler2021-09-22d01t04.flac:8ae1fece891f5d575f04161d55353bde
tyler2021-09-22d01t05.flac:f8c47a042f382668ee9adef817e27e3f
tyler2021-09-22d01t06.flac:32a5e30d8ef07b02a0b5ca1ada275125
tyler2021-09-22d01t07.flac:a6baf100b7e7f07345667f1d6efc898f
tyler2021-09-22d01t08.flac:ba21932379ec793c1e1dbd8ae1a11b57
tyler2021-09-22d01t09.flac:7c5d4d9298ea2fb9788fd99e9c3463cf

 length     expanded size    cdr  WAVE problems  fmt   ratio  filename
     1:55.44       20389532 B   ---   --   ---xx   flac  0.4001  tyler2021-09-22d01t01.flac
     6:35.17       69718028 B   ---   --   ---xx   flac  0.5326  tyler2021-09-22d01t02.flac
     7:34.63       80233820 B   ---   --   ---xx   flac  0.5853  tyler2021-09-22d01t03.flac
     7:34.20       80132684 B   ---   --   ---xx   flac  0.5526  tyler2021-09-22d01t04.flac
    10:18.30      109085804 B   ---   --   ---xx   flac  0.5182  tyler2021-09-22d01t05.flac
     6:01.03       63687500 B   ---   --   ---xx   flac  0.5322  tyler2021-09-22d01t06.flac
     5:12.16       55074476 B   ---   --   ---xx   flac  0.4723  tyler2021-09-22d01t07.flac
    12:05.36      127974716 B   ---   --   ---xx   flac  0.5380  tyler2021-09-22d01t08.flac
     6:01.74       63854492 B   ---   --   ---xx   flac  0.5495  tyler2021-09-22d01t09.flac
    63:19.03      670151052 B                            0.5326  (9 files)




More information about the bittorrent mailing list