[bittorrent] Smothered And Covered Dunwoody, Georgia 9/21/2021 (Z-Man Schoeps CCM4V'S FOB)

Automated Mailer noreply-bt.e at etree.org
Thu Sep 23 05:30:41 UTC 2021


Band:           Other
Torrent Name:   Smothered And Covered Dunwoody, Georgia 9/21/2021 (Z-Man Schoeps CCM4V'S FOB)
Uploaded by:    zmanatl
DB Link:        
Details:        http://bt.etree.org/details.php?id=613945

Contact the seeder at http://db.etree.org/zmanatl

If the link to this show does not work, it was probably removed for
being non-trade-friendly.

Description / text file:
-------------------------
Smothered And Covered
Dunwoody, Georgia
9/21/2021 

Source: Schoeps CCM4V'S>Lunatec V2>Sound Devices 722 (24/44.1)
FOB/DFC/KFC/ZFC/AARP Stage Lip, 4 1/2' High
DSP: Sound Devices 722>Sound Forge 10.0>CD Wave>flac(16)
ID3 Tagged In Foobar 2000
Recorded By: Z-Man
Seeded By: Z-Man
A Team Dirty South Recording

Disc I 1st Set

01 Shooting Star
02 Deal
03 Just What I Needed
04 It's Times Like These
05 Burnin'
06 Die In A Super 8 Motel
07 St. Stephen
08 The Wind Cries Mary
09 Blue Sky
10 Lawyers, Guns, And Money

Disc II 2nd Set

01 While My Guitar Gently Weeps
02 Jealous Again
03 Ramble On Rose
04 The Seeker
05 Hotel California
06 Brown Sugar
07 Tightrope
08 Plush
09 Rock And Roll
10 Jumpin' Jack Flash

Mark Siegel - Guitar
Matt Cohen - Vocals
Jason Lazarus- Bass
Matt Berke - Keyboard, Guitar, And Vocals
Ryan Marcus - Drums

smoco2021-09-21d01t01.flac:b4349820118c2cc7c358b5de806a5a08
smoco2021-09-21d01t02.flac:a6b99a603c3e78bab0dff24bd204801f
smoco2021-09-21d01t03.flac:e63138c0c7a80778a9dd8a5764bf4b48
smoco2021-09-21d01t04.flac:a23e8fb718040739c79434fab3fca546
smoco2021-09-21d01t05.flac:ed5e1bacb2942e27d5e133f215a1198e
smoco2021-09-21d01t06.flac:71cf15f77bedbea9a4ef5b905adeb8cf
smoco2021-09-21d01t07.flac:6c75d7428f1ee6c74f7682d1bfffc96f
smoco2021-09-21d01t08.flac:68dd8a6f895307a659dcdb898f659f4d
smoco2021-09-21d01t09.flac:a0ee8ca0d31bcb591cf7c32389b137aa
smoco2021-09-21d01t10.flac:7c0a6af599125c0eac1ecbcdb54862bb
smoco2021-09-21d02t01.flac:b953908706f3abc5842fa9c667293a94
smoco2021-09-21d02t02.flac:c88b9af68ed92f086dd20a290cabe7bd
smoco2021-09-21d02t03.flac:c6d9fc777f98f9a5a01ccd7c1819c211
smoco2021-09-21d02t04.flac:63d413fb3689a8a8d4d9919950040314
smoco2021-09-21d02t05.flac:045112553167ca2ebbedcaf4b83e5c95
smoco2021-09-21d02t06.flac:bf36aed8161dd0ef78b15ad9b3c5b2bc
smoco2021-09-21d02t07.flac:83d46e3dd71e5f7e7da6d3f6afb5ee5e
smoco2021-09-21d02t08.flac:b1a6a32bd8c0b57fa64b7852baeee17b
smoco2021-09-21d02t09.flac:b923dc4a051f76d771b14f89e37f0b87
smoco2021-09-21d02t10.flac:f9e09bd9505a18d96efaa54aa64694d0

 length     expanded size    cdr  WAVE problems  fmt   ratio  filename
     6:04.13       64240220 B   ---   --   ---xx   flac  0.5214  smoco2021-09-21d01t01.flac
     4:02.24       42745292 B   ---   --   ---xx   flac  0.5466  smoco2021-09-21d01t02.flac
     3:43.03       39344300 B   ---   --   ---xx   flac  0.5641  smoco2021-09-21d01t03.flac
     4:32.62       48126668 B   ---   --   ---xx   flac  0.5546  smoco2021-09-21d01t04.flac
     4:38.59       49178012 B   ---   --   ---xx   flac  0.5507  smoco2021-09-21d01t05.flac
     3:41.07       39000908 B   ---   --   ---xx   flac  0.5617  smoco2021-09-21d01t06.flac
     5:59.09       63348812 B   ---   --   ---xx   flac  0.5230  smoco2021-09-21d01t07.flac
     3:23.11       35835116 B   ---   --   ---xx   flac  0.4903  smoco2021-09-21d01t08.flac
     3:37.44       38382332 B   ---   --   ---xx   flac  0.5427  smoco2021-09-21d01t09.flac
     4:25.30       46816604 B   ---   --   ---xx   flac  0.5311  smoco2021-09-21d01t10.flac
     5:14.16       55427276 B   ---   --   ---xx   flac  0.5235  smoco2021-09-21d02t01.flac
     5:02.37       53359868 B   ---   --   ---xx   flac  0.5595  smoco2021-09-21d02t02.flac
     5:50.46       61848236 B   ---   --   ---xx   flac  0.5189  smoco2021-09-21d02t03.flac
     3:38.13       38485820 B   ---   --   ---xx   flac  0.5789  smoco2021-09-21d02t04.flac
     7:00.65       74240924 B   ---   --   ---xx   flac  0.5311  smoco2021-09-21d02t05.flac
     4:08.24       43803692 B   ---   --   ---xx   flac  0.5712  smoco2021-09-21d02t06.flac
     4:26.25       46981244 B   ---   --   ---xx   flac  0.5781  smoco2021-09-21d02t07.flac
     4:49.11       51005516 B   ---   --   ---xx   flac  0.5985  smoco2021-09-21d02t08.flac
     4:20.18       45906380 B   ---   --   ---xx   flac  0.5774  smoco2021-09-21d02t09.flac
     4:46.48       50563340 B   ---   --   ---xx   flac  0.5620  smoco2021-09-21d02t10.flac
    93:24.40      988640560 B                            0.5477  (20 files)








More information about the bittorrent mailing list