[bittorrent] Swami Gone Bananas Swami Live After Dark The Treehouse Theatre Tucker, Georgia 9/12/2021 (Z-Man Schoeps CCM4V'S FOB)

Automated Mailer noreply-bt.e at etree.org
Thu Sep 23 00:50:59 UTC 2021


Band:           Other
Torrent Name:   Swami Gone Bananas Swami Live After Dark The Treehouse Theatre Tucker, Georgia 9/12/2021 (Z-Man Schoeps CCM4V'S FOB)
Uploaded by:    zmanatl
DB Link:        
Details:        http://bt.etree.org/details.php?id=613943

Contact the seeder at http://db.etree.org/zmanatl

If the link to this show does not work, it was probably removed for
being non-trade-friendly.

Description / text file:
-------------------------
Swami Gone Bananas
Swami Live After Dark
The Treehouse Theatre
Tucker, Georgia
9/12/2021 

Source: Schoeps CCM4V'S>Lunatec V2>Sound Devices 722 (24/44.1)
FOB/DFC/KFC/ZFC/AARP 15' From Stage, 6 1/2' High
DSP: Sound Devices 722>Sound Forge 10.0>CD Wave>flac(16)
ID3 Tagged In Foobar 2000
Recorded By: Z-Man
Seeded By: Z-Man
A Team Dirty South Recording

Disc I 

01 Swami After Dark Live Jingle >
02 I'm In Tune >
03 Swami After Dark Live Jingle
04 Sweet Mystery Of Life
05 Get Out My Life Woman 
06 I Found The Love That I Need 
07 Shari's Produce/Carribean Chicken And Fish Sponsors
08 I Wanna Go To The Meeting
09 Roadhouse Blues
10 Don't Walk Away Renee

Disc II 

01 Shopping For Clothes
02 Dire Wolf
03 Look Out Trouble
04 Youngblood
05 Like A Rolling Stone
06 I Am Yours
07 Maggie May
08 Dream A Little Dream 

Michael "Swami" Schulman - Acoustic Guitar, Mandolin, And Vocals
Richard Hurt - Guitar And Vocals
Dave "Deuce And A Quarter" Roth - Bass And Vocals
J R Hawkins - Percussion, Drums, And Vocals
Bobby Andre - Drums

swami2021-09-12d01t01.flac:0609b98b85aa62f2d8e4e0538e9c0bee
swami2021-09-12d01t02.flac:237321c26081f79698002b48cd3da04a
swami2021-09-12d01t03.flac:19620d6c33f5bad3b04d5de953627248
swami2021-09-12d01t04.flac:95221faa4dedbfa100b1186235701181
swami2021-09-12d01t05.flac:4b1e00bd596efad7c58552a788e512f5
swami2021-09-12d01t06.flac:96fdddc7affe728ecc4f2053dd348d48
swami2021-09-12d01t07.flac:421ecd801a34b2cecf7acba3e8a2ae79
swami2021-09-12d01t08.flac:10e051aaf1bde6062f2e84f3f9eb7b5a
swami2021-09-12d01t09.flac:1aaee38cfbeedecd364453b0c4a3b36b
swami2021-09-12d01t10.flac:1290e328da699286903de17bfb3465e0
swami2021-09-12d02t01.flac:25e7980165e018bfcfd7c65878d4ba57
swami2021-09-12d02t02.flac:99c1fd71b66b0b8a0dccc67f07ad7ac9
swami2021-09-12d02t03.flac:ccdedf7dd6ff61664cb1e9723a06f745
swami2021-09-12d02t04.flac:fbf2e62f2af73ed634500ebf5284bf2c
swami2021-09-12d02t05.flac:c8cd3b8bdb38a34a02e4b0919c376bed
swami2021-09-12d02t06.flac:a47f00a351925ef6da7bcd1021bf8f9f
swami2021-09-12d02t07.flac:110e075360492b3c6449c6ce5585b5a9
swami2021-09-12d02t08.flac:337aaef149385e98de1f96240e34ed93

length     expanded size    cdr  WAVE problems  fmt   ratio  filename
     2:35.32       27417308 B   ---   --   ---xx   flac  0.3465  swami2021-09-12d01t01.flac
     4:45.26       50335196 B   ---   --   ---xx   flac  0.4724  swami2021-09-12d01t02.flac
     2:17.59       24305612 B   ---   --   ---xx   flac  0.3610  swami2021-09-12d01t03.flac
     6:01.01       63682796 B   ---   --   ---xx   flac  0.3866  swami2021-09-12d01t04.flac
     7:14.50       76675244 B   ---   --   ---xx   flac  0.4231  swami2021-09-12d01t05.flac
     4:09.37       44010668 B   ---   --   ---xx   flac  0.4125  swami2021-09-12d01t06.flac
     2:27.50       26048444 B   ---   --   ---xx   flac  0.3715  swami2021-09-12d01t07.flac
     6:49.17       72187628 B   ---   --   ---xx   flac  0.4077  swami2021-09-12d01t08.flac
     4:59.29       52811852 B   ---   --   ---xx   flac  0.4417  swami2021-09-12d01t09.flac
     3:50.16       40609676 B   ---   --   ---xx   flac  0.4166  swami2021-09-12d01t10.flac
     8:51.17       93708428 B   ---   --   ---xx   flac  0.3195  swami2021-09-12d02t01.flac
     4:46.02       50455148 B   ---   --   ---xx   flac  0.3979  swami2021-09-12d02t02.flac
     6:22.52       67507148 B   ---   --   ---xx   flac  0.4239  swami2021-09-12d02t03.flac
     3:53.62       41247068 B   ---   --   ---xx   flac  0.4480  swami2021-09-12d02t04.flac
     7:56.59       84105212 B   ---   --   ---xx   flac  0.4557  swami2021-09-12d02t05.flac
     3:54.37       41364668 B   ---   --   ---xx   flac  0.3828  swami2021-09-12d02t06.flac
     6:41.61       70879916 B   ---   --   ---xx   flac  0.4267  swami2021-09-12d02t07.flac
     3:40.17       38848028 B   ---   --   ---xx   flac  0.3789  swami2021-09-12d02t08.flac
    91:17.24      966200040 B                            0.4066  (18 files)




More information about the bittorrent mailing list