[bittorrent] Swami Gone Bananas Swami Live After Dark The Drawing Room Tucker, Georgia 9/19/2021 (Z-Man Schgoeps CCM4V'S FOB)

Automated Mailer noreply-bt.e at etree.org
Wed Sep 22 22:32:37 UTC 2021


Band:           Other
Torrent Name:   Swami Gone Bananas Swami Live After Dark The Drawing Room Tucker, Georgia 9/19/2021 (Z-Man Schgoeps CCM4V'S FOB)
Uploaded by:    zmanatl
DB Link:        
Details:        http://bt.etree.org/details.php?id=613942

Contact the seeder at http://db.etree.org/zmanatl

If the link to this show does not work, it was probably removed for
being non-trade-friendly.

Description / text file:
-------------------------
Swami Gone Bananas
Swami Live After Dark
The Drawing Room
Tucker, Georgia
9/19/2021 

Source: Schoeps CCM4V'S>Lunatec V2>Sound Devices 722 (24/44.1)
FOB/DFC/KFC/ZFC/AARP 5' From Stage, 4 1/2' High
DSP: Sound Devices 722>Sound Forge 10.0>CD Wave>flac(16)
ID3 Tagged In Foobar 2000
Recorded By: Z-Man
Seeded By: Z-Man
A Team Dirty South Recording

Disc I 

01 *Everybody Knows That This Is Nowhere 
02 #Wild Horses
03 #I Went To Winder To Find Her, I Went to Tucker To Pray
04 *#Leopard Skin Pillbox
05 @Bold As Love
06 @Tennessee Stud
07 Your Cash Ain't Nothin' But Trash
08 *Deep Down In Florida 
09 I Found A Love

Disc II 

01 Shopping For Clothes
02 Banter
03 *#Roadhouse Blues
04 Black Market Baby
05 Dear Doctor
06 Dire Wolf
07 Sweet Mystery Of Life
08 Please Don't Be Long

* With Connor Alred On Harmonica
# With Connor Alred On Percussion
@ With Swami On Mandolin

Michael "Swami" Schulman - Acoustic Guitar, Mandolin, And Vocals
Richard Hurt - Guitar And Vocals
Dave "Deuce And A Quarter" Roth - Bass And Vocals
J R Hawkins - Percussion 

swami2021-09-19d01t01.flac:369ec36b7b1f0a3639ec427e1bd28f73
swami2021-09-19d01t02.flac:8ba5126bab2452127766daf4cb385ad1
swami2021-09-19d01t03.flac:f54aad6e294f0573c94de9128b196125
swami2021-09-19d01t04.flac:4a38b91d8b2506b68edfa4efdee29d10
swami2021-09-19d01t05.flac:4f465cbde5a8cdeced2b79eef0ba45ea
swami2021-09-19d01t06.flac:8d69ee446445198d480ce313db823ffa
swami2021-09-19d01t07.flac:66c6543fd497ae43e35546b73ce8b360
swami2021-09-19d01t08.flac:9932a2ee5a342af0d66228e09fff8138
swami2021-09-19d01t09.flac:a555df480eadbf23df1ba590f7837fe5
swami2021-09-19d02t01.flac:db5c3e73c9aa18be691da70a4e81faa5
swami2021-09-19d02t02.flac:e06b3a579b35400cf2eb3093810a2a6c
swami2021-09-19d02t03.flac:8738a2484e8b3531927b7f235068d1f1
swami2021-09-19d02t04.flac:63f8855beb2f2741b787ae911671efdd
swami2021-09-19d02t05.flac:a6182e78bab5296a096682b641640f6b
swami2021-09-19d02t06.flac:991bbbe6665eb550883783f1d6fadcc6
swami2021-09-19d02t07.flac:df2f85fc6f178557ae4d8d8bd4c0374e
swami2021-09-19d02t08.flac:25a9fa2316dd79ee1dfdac7892000726

  length     expanded size    cdr  WAVE problems  fmt   ratio  filename
     5:50.52       61862348 B   ---   --   ---xx   flac  0.3710  swami2021-09-19d01t01.flac
     7:38.58       80927660 B   ---   --   ---xx   flac  0.3586  swami2021-09-19d01t02.flac
     4:12.58       44589260 B   ---   --   ---xx   flac  0.3851  swami2021-09-19d01t03.flac
     6:17.37       66589868 B   ---   --   ---xx   flac  0.3887  swami2021-09-19d01t04.flac
     3:53.05       41113004 B   ---   --   ---xx   flac  0.3885  swami2021-09-19d01t05.flac
     6:37.34       70110812 B   ---   --   ---xx   flac  0.3619  swami2021-09-19d01t06.flac
     5:28.04       57868652 B   ---   --   ---xx   flac  0.3815  swami2021-09-19d01t07.flac
     5:01.10       53119964 B   ---   --   ---xx   flac  0.3644  swami2021-09-19d01t08.flac
     3:53.59       41240012 B   ---   --   ---xx   flac  0.3925  swami2021-09-19d01t09.flac
     6:59.74       74085692 B   ---   --   ---xx   flac  0.3188  swami2021-09-19d02t01.flac
     2:30.48       26572940 B   ---   --   ---xx   flac  0.3472  swami2021-09-19d02t02.flac
     4:14.25       44864444 B   ---   --   ---xx   flac  0.4394  swami2021-09-19d02t03.flac
     6:07.27       64802348 B   ---   --   ---xx   flac  0.3809  swami2021-09-19d02t04.flac
     5:09.45       54613484 B   ---   --   ---xx   flac  0.3798  swami2021-09-19d02t05.flac
     5:52.37       62179868 B   ---   --   ---xx   flac  0.3811  swami2021-09-19d02t06.flac
     5:12.40       55130924 B   ---   --   ---xx   flac  0.3500  swami2021-09-19d02t07.flac
     7:34.64       80236172 B   ---   --   ---xx   flac  0.3760  swami2021-09-19d02t08.flac
    92:35.02      979907452 B                            0.3726  (17 files)






More information about the bittorrent mailing list