[bittorrent] Derek Banach Quintet 14er Stage Taste Of Colorado Denver, Colorado 8/15/2021 (Z-Man Schoeps CCM4V'S FOB)

Automated Mailer noreply-bt.e at etree.org
Wed Sep 22 22:26:58 UTC 2021


Band:           Other
Torrent Name:   Derek Banach Quintet 14er Stage Taste Of Colorado Denver, Colorado 8/15/2021 (Z-Man Schoeps CCM4V'S FOB) 
Uploaded by:    zmanatl
DB Link:        
Details:        http://bt.etree.org/details.php?id=613941

Contact the seeder at http://db.etree.org/zmanatl

If the link to this show does not work, it was probably removed for
being non-trade-friendly.

Description / text file:
-------------------------
Derek Banach Quintet
14er Stage
Taste Of Colorado
Denver, Colorado
8/15/2021 

Source: Schoeps CCM4V'S>Lunatec V2>Sound Devices 722 (24/44.1)
FOB/DFC/KFC/ZFC/AARP 30' From Stage, 5' High
DSP: Sound Devices 722>Sound Forge 10.0>CD Wave>flac(16)
ID3 Tagged In Foobar 2000
Recorded By: Z-Man
Seeded By: Z-Man
A Team Dirty South Recording

Disc I

01 ?
02 Abiento - I'll See You Later
03 Band Introductions
04 November 15th
05 ?
06 Hand In Hand

Derek Banach - Trumpet
David Bernot - Saxophone
Tom Amend - Keyboards
Andrew Rose - Bass
Todd Reid - Drums 

derek2021-09-06d01t01.flac:cf758694c7b095fdd1499e4bf9cf4ace
derek2021-09-06d01t02.flac:3aec937be230ba4dc258f8e96a6cd141
derek2021-09-06d01t03.flac:cc4c8d0559ae6835453fc8699cdb74f6
derek2021-09-06d01t04.flac:efa1628b15bc4a5c98014b4d7047b0c9
derek2021-09-06d01t05.flac:83821e282928cc23405fc74339fcd06b
derek2021-09-06d01t06.flac:539ff014dd1fcfc5c33bdd711d2390e7

    length     expanded size    cdr  WAVE problems  fmt   ratio  filename
     7:12.31       76277756 B   ---   --   ---xx   flac  0.4701  derek2021-09-06d01t01.flac
    12:09.64      128746172 B   ---   --   ---xx   flac  0.4772  derek2021-09-06d01t02.flac
     1:35.56       16889756 B   ---   --   ---xx   flac  0.3138  derek2021-09-06d01t03.flac
    11:23.63      120629420 B   ---   --   ---xx   flac  0.4821  derek2021-09-06d01t04.flac
     9:21.30       99031004 B   ---   --   ---xx   flac  0.5199  derek2021-09-06d01t05.flac
    10:55.67      115699628 B   ---   --   ---xx   flac  0.4745  derek2021-09-06d01t06.flac
    52:39.11      557273736 B                            0.4794  (6 files)




More information about the bittorrent mailing list