[bittorrent] Sweet Melissa And The Travelin' Men The Green Room Mableton, Georgia 9/17/2021 (Z-Man Schoeps CCM4V'S FOB)

Automated Mailer noreply-bt.e at etree.org
Wed Sep 22 03:43:56 UTC 2021


Band:           Other
Torrent Name:   Sweet Melissa And The Travelin' Men The Green Room Mableton, Georgia 9/17/2021 (Z-Man Schoeps CCM4V'S FOB)
Uploaded by:    zmanatl
DB Link:        
Details:        http://bt.etree.org/details.php?id=613933

Contact the seeder at http://db.etree.org/zmanatl

If the link to this show does not work, it was probably removed for
being non-trade-friendly.

Description / text file:
-------------------------
Sweet Melissa And The Travelin' Men
The Green Room
Mableton, Georgia
9/17/2021 

Source: Schoeps CCM4V'S>Lunatec V2>Sound Devices 722 (24/44.1)
FOB/DFC/KFC/ZFC/AARP 8' From Stage, 5' High
DSP: Sound Devices 722>Sound Forge 10.0>CD Wave>flac(16)
ID3 Tagged In Foobar 2000
Recorded By: Z-Man
Seeded By: Z-Man
A Team Dirty South Recording

Disc I 1st Set

01 Les Brers In A Minor Jam >
02 Dreams >
03 Midnight Rider 
04 Statesboro Blues
05 Trouble No More 
06 *Ain't Wastin' Time No More 
07 *One Way Out 
08 *Stormy Monday
09 *Midnight In Harlem
10 *Melissa 
11 Soulshine

Disc II 2nd Set

01 Don't Want You No More >
02 Ain't My Cross To Bear 
03 Blue Sky
04 *Ramblin' Man
05 *You Don't Love Me 
06 *In Memory Of Elizabeth Reed >
07 Drum Solo >
08 *In Memory Of Elizabeth Reed
09 Black-Hearted Woman >
10 Jessica >
11 Hot 'Lanta >
12 Drum Solo >
13 Hot 'Lanta >
14 Whippin' Post

* With Jesse Sungha On Guitar

"Sweet" Melissa Goehner - Vocals
Chris "Critter" Ricker - Guitar And Vocals
Jeremy - Guitar And Vocals
Johnny Barrett - Bass And Vocals
Joel Edwards - Keyboards
Aaron Kaufman - Drums
Trenton Sicola - Drums And Percussion

sweet2021-09-18d01t01.flac:b605b1760e72a42147d4fb0c2011e783
sweet2021-09-18d01t02.flac:3cb87986e64163d66c7ebe5bb98deef1
sweet2021-09-18d01t03.flac:6f8e5c5ad4c5020970ecb016cf69729a
sweet2021-09-18d01t04.flac:a5b4cf33113980ebed59e12db3f7b3cc
sweet2021-09-18d01t05.flac:b25ba415f808cffde9009784052d872d
sweet2021-09-18d01t06.flac:2d434915804dc4d7d3569e92f95344ab
sweet2021-09-18d01t07.flac:c54e1ed998e66d1a19b188e77311ccde
sweet2021-09-18d01t08.flac:8052175a82a766b5b4732a37beb917ba
sweet2021-09-18d01t09.flac:0295fab42d278bfe279290bd80ba7019
sweet2021-09-18d01t10.flac:221cef377747fe1d480feb4e24ecceac
sweet2021-09-18d01t11.flac:0619f8dd0fa772af065e806d469f396f
sweet2021-09-18d02t01.flac:5cb97249022757357e369ac9b58eccf9
sweet2021-09-18d02t02.flac:69e5b21a1b539575d7d378ff29834fc4
sweet2021-09-18d02t03.flac:b6b739028bc6d39809490af2ae808dbd
sweet2021-09-18d02t04.flac:f3c2c2821b2d40ae8fdbdcb1ee1416e0
sweet2021-09-18d02t05.flac:23ae016a1919b962278bb57419f31d82
sweet2021-09-18d02t06.flac:4fa89a69744ef023ead3d1c17e35532b
sweet2021-09-18d02t07.flac:31848583b8159ad8c13c89097cc11807
sweet2021-09-18d02t08.flac:a4a48d03df3ac71fa7e22e69e30d08f0
sweet2021-09-18d02t09.flac:5abd928060d85c27af3276215fcca51e
sweet2021-09-18d02t10.flac:ac6c7a3db88fcda70a95d185c2f536d2
sweet2021-09-18d02t11.flac:302485385d4ace4f9ac46b97230c6c90
sweet2021-09-18d02t12.flac:6e45912ac960eab5d9bb96e748c14ee4
sweet2021-09-18d02t13.flac:f8e24bea7136b18babd997063e4d1667
sweet2021-09-18d02t14.flac:4609e09560abae6a92e761712b17cb9b

  length     expanded size    cdr  WAVE problems  fmt   ratio  filename
     2:17.33       24244460 B   ---   --   ---xx   flac  0.5414  sweet2021-09-18d01t01.flac
     9:30.44      100651532 B   ---   --   ---xx   flac  0.5381  sweet2021-09-18d01t02.flac
     5:09.51       54627596 B   ---   --   ---xx   flac  0.4917  sweet2021-09-18d01t03.flac
     5:26.07       57522908 B   ---   --   ---xx   flac  0.5234  sweet2021-09-18d01t04.flac
     4:02.59       42827612 B   ---   --   ---xx   flac  0.5732  sweet2021-09-18d01t05.flac
     7:01.66       74419676 B   ---   --   ---xx   flac  0.5011  sweet2021-09-18d01t06.flac
     5:33.05       58753004 B   ---   --   ---xx   flac  0.5423  sweet2021-09-18d01t07.flac
     8:26.37       89345468 B   ---   --   ---xx   flac  0.4744  sweet2021-09-18d01t08.flac
     7:05.11       74995916 B   ---   --   ---xx   flac  0.5052  sweet2021-09-18d01t09.flac
     6:45.56       71573756 B   ---   --   ---xx   flac  0.5286  sweet2021-09-18d01t10.flac
     7:54.35       83695964 B   ---   --   ---xx   flac  0.5150  sweet2021-09-18d01t11.flac
     2:30.00       26460044 B   ---   --   ---xx   flac  0.5720  sweet2021-09-18d02t01.flac
     5:12.22       55088588 B   ---   --   ---xx   flac  0.5147  sweet2021-09-18d02t02.flac
     8:45.56       92741756 B   ---   --   ---xx   flac  0.5852  sweet2021-09-18d02t03.flac
     5:15.63       55714220 B   ---   --   ---xx   flac  0.6021  sweet2021-09-18d02t04.flac
     8:00.08       84690860 B   ---   --   ---xx   flac  0.6035  sweet2021-09-18d02t05.flac
    14:09.50      149881244 B   ---   --   ---xx   flac  0.5905  sweet2021-09-18d02t06.flac
     1:36.68       17094380 B   ---   --   ---xx   flac  0.5947  sweet2021-09-18d02t07.flac
     1:10.46       12456236 B   ---   --   ---xx   flac  0.4663  sweet2021-09-18d02t08.flac
     5:18.68       56255180 B   ---   --   ---xx   flac  0.5639  sweet2021-09-18d02t09.flac
     9:38.46      102067436 B   ---   --   ---xx   flac  0.6006  sweet2021-09-18d02t10.flac
     4:13.11       44655116 B   ---   --   ---xx   flac  0.5820  sweet2021-09-18d02t11.flac
     0:47.70        8455484 B   ---   --   ---xx   flac  0.5711  sweet2021-09-18d02t12.flac
     0:57.56       10186556 B   ---   --   ---xx   flac  0.5558  sweet2021-09-18d02t13.flac
    12:13.39      129392972 B   ---   --   ---xx   flac  0.5687  sweet2021-09-18d02t14.flac
   149:04.32     1577797964 B                            0.5509  (25 files)





More information about the bittorrent mailing list