[bittorrent] Tyler Neal Band The Northside Tavern Atlanta, Georgia 9/15/2021 (Z-Man Schoeps CCM4V'S FOB)

Automated Mailer noreply-bt.e at etree.org
Tue Sep 21 22:42:43 UTC 2021


Band:           Other
Torrent Name:   Tyler Neal Band The Northside Tavern Atlanta, Georgia 9/15/2021 (Z-Man Schoeps CCM4V'S FOB)
Uploaded by:    zmanatl
DB Link:        
Details:        http://bt.etree.org/details.php?id=613930

Contact the seeder at http://db.etree.org/zmanatl

If the link to this show does not work, it was probably removed for
being non-trade-friendly.

Description / text file:
-------------------------
Tyler Neal Band
The Northside Tavern
Atlanta, Georgia
9/15/2021 

Source: Schoeps CCM4V'S>Lunatec V2>Sound Devices 722 (24/44.1)
FOB/DFC/KFC/ZFC/AARP 10' From Stage, 6 1/2' High
DSP: Sound Devices 722>Sound Forge 10.0>CD Wave>flac(16)
ID3 Tagged In Foobar 2000
Recorded By: Z-Man
Seeded By: Z-Man
A Team Dirty South Recording

Disc I 1st Set

01 Just Kissed My Baby 
02 Kissin' My Love
03 Mystery
04 Nothin' To Lose
05 *Drown In My Own Tears
06 *Down South In New Orleans
07  *Oye Como Va
08 Born Under A Bad Sign
09 I've Got A Woman

Disc II 2nd Set

01 #Yes We Can
02 #?
03 #Jambalaya
04 Instrumental
05 Get Out my Life Womnan
06 Southern Nights
07 I'm Goin' Down >
08 Hot 'Lanta 
09 Done Somebody Wrong

* With Stagger Lee On Saxophone
# With Rick Robinson On Keyboards And Vocals

Tyler Neal - Guitar And Vocals
Hill "Catfish" Roberts - Bass And Vocals
Santiago Cristancho - Keyboards
Jeff Jani - Drums

tyler2021-09-15d01t01.flac:63dc70a5cbfcc9327bba46bffeaa49ce
tyler2021-09-15d01t02.flac:b076fab29c40556352be9f8f4c72c7ea
tyler2021-09-15d01t03.flac:cf6036a5970ec10e3bf2d285a5ae2ffa
tyler2021-09-15d01t04.flac:f0b5efb2955c316e3ebe2cf429dff08e
tyler2021-09-15d01t05.flac:24a3a1bc8a2d8eb01d57ca3bf4e19ba2
tyler2021-09-15d01t06.flac:72588678fe806f22abacfe57f37703aa
tyler2021-09-15d01t07.flac:b14dc8987e7e2c9d6af8a5b987df1153
tyler2021-09-15d01t08.flac:185535122bbe60c1773f71fd5082d83f
tyler2021-09-15d01t09.flac:173772232be926a3ffa335f5cba92771
tyler2021-09-15d02t01.flac:ef881026bd17e97a594e429ee8f9244f
tyler2021-09-15d02t02.flac:0989837915b177b175f35624c1cee4e8
tyler2021-09-15d02t03.flac:e17296b4d9570897df4892becbdfd987
tyler2021-09-15d02t04.flac:97e901f0f560cc705dd10cbfd73c1fa4
tyler2021-09-15d02t05.flac:cd4d7a09fb81414c72d99afdb29272ee
tyler2021-09-15d02t06.flac:4f9f7f44127015c5e2650411dacea021
tyler2021-09-15d02t07.flac:eb18f336972cfbe6854b04819272c36d
tyler2021-09-15d02t08.flac:c6767dba63ffaf68a8be4689abf99278
tyler2021-09-15d02t09.flac:b935121fa9a3bf2e230cd7803bb7c06f

 length     expanded size    cdr  WAVE problems  fmt   ratio  filename
     9:12.02       97377548 B   ---   --   ---xx   flac  0.5248  tyler2021-09-15d01t01.flac
     7:25.73       78669740 B   ---   --   ---xx   flac  0.5587  tyler2021-09-15d01t02.flac
    11:31.33      121970060 B   ---   --   ---xx   flac  0.5435  tyler2021-09-15d01t03.flac
     9:30.37      100635068 B   ---   --   ---xx   flac  0.5392  tyler2021-09-15d01t04.flac
     5:55.11       62647916 B   ---   --   ---xx   flac  0.4974  tyler2021-09-15d01t05.flac
     6:23.38       67650620 B   ---   --   ---xx   flac  0.5389  tyler2021-09-15d01t06.flac
     9:41.59      102627212 B   ---   --   ---xx   flac  0.5509  tyler2021-09-15d01t07.flac
     6:54.47       73140188 B   ---   --   ---xx   flac  0.5195  tyler2021-09-15d01t08.flac
     8:10.36       86520716 B   ---   --   ---xx   flac  0.4986  tyler2021-09-15d01t09.flac
     7:43.31       81746156 B   ---   --   ---xx   flac  0.5230  tyler2021-09-15d02t01.flac
     7:56.43       84067580 B   ---   --   ---xx   flac  0.5336  tyler2021-09-15d02t02.flac
     7:59.01       84497996 B   ---   --   ---xx   flac  0.5380  tyler2021-09-15d02t03.flac
     9:33.56      101208956 B   ---   --   ---xx   flac  0.5144  tyler2021-09-15d02t04.flac
     9:58.36      105571916 B   ---   --   ---xx   flac  0.5137  tyler2021-09-15d02t05.flac
     9:08.14       96700172 B   ---   --   ---xx   flac  0.4695  tyler2021-09-15d02t06.flac
     4:20.04       45873452 B   ---   --   ---xx   flac  0.6026  tyler2021-09-15d02t07.flac
     7:21.25       77851244 B   ---   --   ---xx   flac  0.5881  tyler2021-09-15d02t08.flac
     7:10.02       75856748 B   ---   --   ---xx   flac  0.5468  tyler2021-09-15d02t09.flac
   145:56.23     1544613288 B                            0.5313  (18 files)





More information about the bittorrent mailing list