[bittorrent] Plane Jane Solo Acoustic Marietta Grassroots Music Festival Marietta, Georgia 9/19/2021 (Z-ManSchoeps CCM4V'S FOB)

Automated Mailer noreply-bt.e at etree.org
Tue Sep 21 16:40:25 UTC 2021


Band:           Other
Torrent Name:   Plane Jane Solo Acoustic Marietta Grassroots Music Festival Marietta, Georgia 9/19/2021 (Z-ManSchoeps CCM4V'S FOB)
Uploaded by:    zmanatl
DB Link:        
Details:        http://bt.etree.org/details.php?id=613926

Contact the seeder at http://db.etree.org/zmanatl

If the link to this show does not work, it was probably removed for
being non-trade-friendly.

Description / text file:
-------------------------
Plane Jane Solo Acoustic
Marietta Grassroots Music Festival
Marietta, Georgia
9/19/2021 

Source: Schoeps CCM4V'S>Lunatec V2>Sound Devices 722 (24/44.1)
FOB/DFC/KFC/ZFC/AARP 35' From Stage, 6 1/2' High
DSP: Sound Devices 722>Sound Forge 10.0>CD Wave>flac(16)
ID3 Tagged In Foobar 2000
Recorded By: Z-Man
Seeded By: Z-Man
A Team Dirty South Recording

Disc I 

01 The Lockdown Song
02 ?
03 ?
04 For What It's Worth II >
05 What's Up >
06 For What It's Woth II
07 Know You Love You
08 Outro

plane2021-09-19d01t01.flac:4eb82603d953cb793c55158f8848f22d
plane2021-09-19d01t02.flac:79d53140108fbc73979a5c7292eebcce
plane2021-09-19d01t03.flac:27e04cef9c679add3cf327db9f0a13cc
plane2021-09-19d01t04.flac:703f3b3e656f579825a465a5c6986e86
plane2021-09-19d01t05.flac:4122d86800c1cf0e854ee07971d7c059
plane2021-09-19d01t06.flac:d4f7f30fb24c8e670afb9a36c42c47d4
plane2021-09-19d01t07.flac:185da1ee673eb7b0ecf4698286c0cc22
plane2021-09-19d01t08.flac:5b3cab4c4377ae0bc84e01725e7b21d8

length     expanded size    cdr  WAVE problems  fmt   ratio  filename
     5:17.14       55951772 B   ---   --   ---xx   flac  0.4751  plane2021-09-19d01t01.flac
     4:42.25       49803644 B   ---   --   ---xx   flac  0.4813  plane2021-09-19d01t02.flac
     5:49.16       61601276 B   ---   --   ---xx   flac  0.5111  plane2021-09-19d01t03.flac
     5:35.40       59188124 B   ---   --   ---xx   flac  0.5032  plane2021-09-19d01t04.flac
     2:54.22       30745388 B   ---   --   ---xx   flac  0.5352  plane2021-09-19d01t05.flac
     0:40.62        7201868 B   ---   --   ---xx   flac  0.4383  plane2021-09-19d01t06.flac
     5:55.16       62659676 B   ---   --   ---xx   flac  0.5860  plane2021-09-19d01t07.flac
     2:34.04       27175052 B   ---   --   ---xx   flac  0.4260  plane2021-09-19d01t08.flac
    33:28.49      354326800 B                            0.5072  (8 files)








More information about the bittorrent mailing list