[bittorrent] Hunter Blaylock And The Sad Machine The Hunt House Pavilion The Hunt House Marietta, Georgia 9/17/2021 (Z-Man Schoeps CCM4V'S FOB)

Automated Mailer noreply-bt.e at etree.org
Tue Sep 21 15:43:32 UTC 2021


Band:           Other
Torrent Name:   Hunter Blaylock And The Sad Machine The Hunt House Pavilion The Hunt House Marietta, Georgia 9/17/2021 (Z-Man Schoeps CCM4V'S FOB)
Uploaded by:    zmanatl
DB Link:        
Details:        http://bt.etree.org/details.php?id=613925

Contact the seeder at http://db.etree.org/zmanatl

If the link to this show does not work, it was probably removed for
being non-trade-friendly.

Description / text file:
-------------------------
Hunter Blaylock And The Sad Machine
The Hunt House Pavilion
The Hunt House
Marietta, Georgia
9/17/2021 

Source: Schoeps CCM4V'S>Lunatec V2>Sound Devices 722 (24/44.1)
FOB/DFC/KFC/ZFC/AARP 5' From Stage, 6' High
DSP: Sound Devices 722>Sound Forge 10.0>CD Wave>flac(16)
ID3 Tagged In Foobar 2000
Recorded By: Z-Man
Seeded By: Z-Man
A Team Dirty South Recording

Disc I 

01 Greeting By Hunter
02 Lay You Down
03 Low Down
04 Goin' Through It
05 Radio
06 Shaky Hills
07 Mushrooms
08 Outro

Hunter Blaylock - Acoustic Guitar And Vocals
Tim Moore - Acoustic Guitar, Mandolin, And Vocals
Austin Harper - Pedal Steel Guitar, Mandolin, And Acoustic Guitar

hunter2021-09-17d01t01.flac:1f48eaae7b0f412a44c0f5351e9bcca3
hunter2021-09-17d01t02.flac:0c64e34aa4ac6e37c6571626abb542d4
hunter2021-09-17d01t03.flac:986dc38940bedf0c823937a620d343d2
hunter2021-09-17d01t04.flac:1b84bb0d131f2c29af0491723710d8c6
hunter2021-09-17d01t05.flac:12ce6c520f13d73c59bc5b51b8ff278d
hunter2021-09-17d01t06.flac:ebd30949128cf5266f9070789fdbdc4e
hunter2021-09-17d01t07.flac:534a5748ac4f2ebde6c2bb44091b804b
hunter2021-09-17d01t08.flac:de350cb591b69a714fca37b35d4cee2b

 length     expanded size    cdr  WAVE problems  fmt   ratio  filename
     0:27.64        4913372 B   ---   --   ---xx   flac  0.3199  hunter2021-09-17d01t01.flac
     4:57.66       52546076 B   ---   --   ---xx   flac  0.4199  hunter2021-09-17d01t02.flac
     5:35.52       59216348 B   ---   --   ---xx   flac  0.4292  hunter2021-09-17d01t03.flac
     4:58.51       52687196 B   ---   --   ---xx   flac  0.3716  hunter2021-09-17d01t04.flac
     4:02.18       42731180 B   ---   --   ---xx   flac  0.3848  hunter2021-09-17d01t05.flac
     5:24.38       57243020 B   ---   --   ---xx   flac  0.3974  hunter2021-09-17d01t06.flac
     3:50.54       40699052 B   ---   --   ---xx   flac  0.3528  hunter2021-09-17d01t07.flac
     1:00.71       10751036 B   ---   --   ---xx   flac  0.3915  hunter2021-09-17d01t08.flac
    30:18.39      320787280 B                            0.3940  (8 files)






More information about the bittorrent mailing list