[bittorrent] Kevn Kinney Solo Acoustic The Hunt House Pavilion The Hunt House Marietta, Georgia 9/17/2021 (Z-Man Schoeps CCM4V'S FOB)

Automated Mailer noreply-bt.e at etree.org
Tue Sep 21 02:50:24 UTC 2021


Band:           Kevn Kinney
Torrent Name:   Kevn Kinney Solo Acoustic The Hunt House Pavilion The Hunt House Marietta, Georgia 9/17/2021 (Z-Man Schoeps CCM4V'S FOB)
Uploaded by:    zmanatl
DB Link:        
Details:        http://bt.etree.org/details.php?id=613920

Contact the seeder at http://db.etree.org/zmanatl

If the link to this show does not work, it was probably removed for
being non-trade-friendly.

Description / text file:
-------------------------
Kevn Kinney Solo Acoustic
The Hunt House Pavilion
The Hunt House
Marietta, Georgia
9/17/2021 

Source: Schoeps CCM4V'S>Lunatec V2>Sound Devices 722 (24/44.1)
FOB/DFC/KFC/ZFC/AARP 5' From Stage, 6' High
DSP: Sound Devices 722>Sound Forge 10.0>CD Wave>flac(16)
ID3 Tagged In Foobar 2000
Recorded By: Z-Man
Seeded By: Z-Man
A Team Dirty South Recording

Disc I 1st Set

01 Greeting/Introduction By Marc Sommers 
02 This Song's For Me >
03 Catch The Wind 
04 Turn Up That Song On The Radio
05 Banter
06 Chico And Maria
07 MacDougal Blues 
08 Chattahoochie Coochieman
09 The Friend Song
10 In Time 
11 Build A Fire
12 Born On The Right Side Of Town
13 *#Time Again
14 *#All Of These Wishes

Disc II 2nd Set

01 Announcement By Marc Sommers (Shhhhh)
02 Honeysuckle Blue >
03 One Way Out >
04 Honeysuckle Blue
05 Sing A Song
06 Let's Go Dancin'
07 #Ian Mclagan
08 Scarred But Smarter
09 *#Trying to Find A Song About You
10 Gotta Move On
11 *#Which Jesus 
12 *#@Straight To Hell
13 Outro

* With Tim Moore On Mandolin
# With Austin On Pedal Steel Guitar
@ With Hunter Blaylock On Vocals

Kevn Kinney - Acoustic Guitar, Harmonica, And Vocals

kevn2021-09-17d01t01.flac:73c4ee7880a55fe6aacdbde8582e33d9
kevn2021-09-17d01t02.flac:4bdf660c9f7d8a42c70285842cebe667
kevn2021-09-17d01t03.flac:bf0ef99d8fcea5d30e81d8c7d757442b
kevn2021-09-17d01t04.flac:829d897c81c2c2e768e8829c0d51a5f3
kevn2021-09-17d01t05.flac:cf0f245550740fe1e97b3caa3bf40577
kevn2021-09-17d01t06.flac:cedba1f966f2a51d89a12ffc51679d54
kevn2021-09-17d01t07.flac:098d4e9225dafb985909459797e364df
kevn2021-09-17d01t08.flac:82d69774648e68092ebfddd0493d285c
kevn2021-09-17d01t09.flac:391c34175a2e456f37e8935e37c3cffe
kevn2021-09-17d01t10.flac:a74f84a56bd965816264a9a301078ab2
kevn2021-09-17d01t11.flac:50255bd60f3a7ac4fce33061ad14d82d
kevn2021-09-17d01t12.flac:d21d52f1773b5f52fc3093d19437f7a1
kevn2021-09-17d01t13.flac:1a3328e7d5dd5f52ed9a382821dfcbe3
kevn2021-09-17d01t14.flac:1eae5fd40b7cc13fc2f5bd854d94df79
kevn2021-09-17d02t01.flac:cd1c4a68e2f180dd034e4d01f91e942d
kevn2021-09-17d02t02.flac:a8faf31cf8f64af042e32c2fd94f4393
kevn2021-09-17d02t03.flac:ede9c87f515ed6a38672dc3fef33a3c7
kevn2021-09-17d02t04.flac:79b181cc36aa78b593e50be1e602025a
kevn2021-09-17d02t05.flac:8cf762643d64b0a188314f684d68852d
kevn2021-09-17d02t06.flac:80c396ed075c96b2a4b9c3175a6400ce
kevn2021-09-17d02t07.flac:3a551fa9a1f691409a4224dc1a2ca612
kevn2021-09-17d02t08.flac:14afa2889ef502f6fd2cce5d27468902
kevn2021-09-17d02t09.flac:2a181907982bdd5202387daf8ab7e31d
kevn2021-09-17d02t10.flac:a822951d3e4a04c5692ab27dd999ddd1
kevn2021-09-17d02t11.flac:851335625018c8f00a0476e4b05a57c1
kevn2021-09-17d02t12.flac:ebc7ae71c2814d6fbf74340650d23835
kevn2021-09-17d02t13.flac:9f468b11a245aae9ba54463ae756ef24

 length     expanded size    cdr  WAVE problems  fmt   ratio  filename
     1:03.73       11284940 B   ---   --   ---xx   flac  0.4395  kevn2021-09-17d01t01.flac
     2:42.48       28689740 B   ---   --   ---xx   flac  0.4684  kevn2021-09-17d01t02.flac
     3:02.07       32121308 B   ---   --   ---xx   flac  0.4853  kevn2021-09-17d01t03.flac
     4:13.04       44638652 B   ---   --   ---xx   flac  0.4851  kevn2021-09-17d01t04.flac
     2:14.44       23741132 B   ---   --   ---xx   flac  0.3430  kevn2021-09-17d01t05.flac
     7:24.00       78321644 B   ---   --   ---xx   flac  0.4286  kevn2021-09-17d01t06.flac
     6:02.35       63939164 B   ---   --   ---xx   flac  0.4383  kevn2021-09-17d01t07.flac
     4:56.68       52374380 B   ---   --   ---xx   flac  0.5315  kevn2021-09-17d01t08.flac
     4:32.49       48096092 B   ---   --   ---xx   flac  0.4669  kevn2021-09-17d01t09.flac
     6:24.23       67791740 B   ---   --   ---xx   flac  0.4186  kevn2021-09-17d01t10.flac
     4:37.70       49027484 B   ---   --   ---xx   flac  0.4583  kevn2021-09-17d01t11.flac
     5:26.68       57666380 B   ---   --   ---xx   flac  0.4437  kevn2021-09-17d01t12.flac
     5:16.33       55820060 B   ---   --   ---xx   flac  0.4786  kevn2021-09-17d01t13.flac
     6:36.33       69932060 B   ---   --   ---xx   flac  0.4398  kevn2021-09-17d01t14.flac
     1:29.44       15803132 B   ---   --   ---xx   flac  0.3630  kevn2021-09-17d02t01.flac
     5:55.47       62732588 B   ---   --   ---xx   flac  0.4793  kevn2021-09-17d02t02.flac
     1:10.27       12411548 B   ---   --   ---xx   flac  0.5090  kevn2021-09-17d02t03.flac
     0:29.46        5223836 B   ---   --   ---xx   flac  0.4933  kevn2021-09-17d02t04.flac
     3:12.52       33991148 B   ---   --   ---xx   flac  0.3995  kevn2021-09-17d02t05.flac
     3:57.53       41931500 B   ---   --   ---xx   flac  0.4833  kevn2021-09-17d02t06.flac
     5:41.09       60173612 B   ---   --   ---xx   flac  0.4575  kevn2021-09-17d02t07.flac
     4:12.56       44584556 B   ---   --   ---xx   flac  0.4730  kevn2021-09-17d02t08.flac
     6:27.09       68288012 B   ---   --   ---xx   flac  0.4602  kevn2021-09-17d02t09.flac
     5:42.34       60408812 B   ---   --   ---xx   flac  0.4623  kevn2021-09-17d02t10.flac
     5:46.17       61074428 B   ---   --   ---xx   flac  0.4020  kevn2021-09-17d02t11.flac
     8:26.18       89300780 B   ---   --   ---xx   flac  0.4895  kevn2021-09-17d02t12.flac
     1:08.65       12148124 B   ---   --   ---xx   flac  0.4280  kevn2021-09-17d02t13.flac
   118:14.57     1251516852 B                            0.4551  (27 files)





More information about the bittorrent mailing list