[bittorrent] The Nearest Exit Marietta Grassroots Music Festival Marietta, Georgia 9/19/2021 (Z-Man Schoeps CCM4V'S FOB)

Automated Mailer noreply-bt.e at etree.org
Mon Sep 20 15:48:10 UTC 2021


Band:           Other
Torrent Name:   The Nearest Exit Marietta Grassroots Music Festival Marietta, Georgia 9/19/2021 (Z-Man Schoeps CCM4V'S FOB)
Uploaded by:    zmanatl
DB Link:        
Details:        http://bt.etree.org/details.php?id=613913

Contact the seeder at http://db.etree.org/zmanatl

If the link to this show does not work, it was probably removed for
being non-trade-friendly.

Description / text file:
-------------------------
The Nearest Exit
Marietta Grassroots Music Festival
Marietta, Georgia
9/19/2021 

Source: Schoeps CCM4V'S>Lunatec V2>Sound Devices 722 (24/44.1)
FOB/DFC/KFC/ZFC/AARP 18' From Stage, 6 1/2' High
DSP: Sound Devices 722>Sound Forge 10.0>CD Wave>flac(16)
ID3 Tagged In Foobar 2000
Recorded By: Z-Man
Seeded By: Z-Man
A Team Dirty South Recording

Disc I 

01 Greeting By Will
02 That's What Love Will Make You Do
03 Bats In The Attic
04 Street Sweeper
05 Help On The Way >
06 Slipknot! >
07 Tonight
08 Walk On The Water
09 Outro

Will Pease - Guitar And Vocals
Dan Suero - Guitar 
Curtis Johnson - Bass
Dylan Welch - Drums

nearest2021-09-19d01t01.flac:d0b552b6e71cde057bc26ef31ca3cdf6
nearest2021-09-19d01t02.flac:0c10138c70929971985cf07c4c260e36
nearest2021-09-19d01t03.flac:f5f50de764f3383a9693c03c31f14dcd
nearest2021-09-19d01t04.flac:7a3ffb60de15731043a99202cff97b3e
nearest2021-09-19d01t05.flac:173cb3754782fda7dd9d0a1d1f0f04c7
nearest2021-09-19d01t06.flac:5e63e460b6e55610115069774924b079
nearest2021-09-19d01t07.flac:a242acf4d2bd5569eb4c8ed822b2b225
nearest2021-09-19d01t08.flac:69ef166dd40c4272be45d394d164837c
nearest2021-09-19d01t09.flac:e5834415ba10ae0716c4c94b5d501854

 length     expanded size    cdr  WAVE problems  fmt   ratio  filename
     0:22.45        3986684 B   ---   --   ---xx   flac  0.3118  nearest2021-09-19d01t01.flac
     4:00.57       42470108 B   ---   --   ---xx   flac  0.4916  nearest2021-09-19d01t02.flac
     3:54.14       41310572 B   ---   --   ---xx   flac  0.5153  nearest2021-09-19d01t03.flac
    10:59.18      116289980 B   ---   --   ---xx   flac  0.4909  nearest2021-09-19d01t04.flac
     4:07.33       43648460 B   ---   --   ---xx   flac  0.5062  nearest2021-09-19d01t05.flac
     3:28.05       36703004 B   ---   --   ---xx   flac  0.5404  nearest2021-09-19d01t06.flac
     5:58.71       63318236 B   ---   --   ---xx   flac  0.5438  nearest2021-09-19d01t07.flac
     4:08.46       43855436 B   ---   --   ---xx   flac  0.4847  nearest2021-09-19d01t08.flac
     2:00.15       21203324 B   ---   --   ---xx   flac  0.3862  nearest2021-09-19d01t09.flac
    39:00.04      412785804 B                            0.4998  (9 files)






More information about the bittorrent mailing list