[bittorrent] Remezda Band Taste Of Colorado 14er Stage Denver, Colorado 9/6/2021 (Z-Man Schoeps CCM4V'S FOB)

Automated Mailer noreply-bt.e at etree.org
Mon Sep 20 05:13:41 UTC 2021


Band:           Other
Torrent Name:   Remezda Band Taste Of Colorado 14er Stage Denver, Colorado 9/6/2021 (Z-Man Schoeps CCM4V'S FOB)
Uploaded by:    zmanatl
DB Link:        
Details:        http://bt.etree.org/details.php?id=613910

Contact the seeder at http://db.etree.org/zmanatl

If the link to this show does not work, it was probably removed for
being non-trade-friendly.

Description / text file:
-------------------------
Remezda Band
Taste Of Colorado
14er Stage
Denver, Colorado
9/6/2021 

Source: Schoeps CCM4V'S>Lunatec V2>Sound Devices 722 (24/44.1)
FOB/DFC/KFC/ZFC/AARP 8' From Stage, 6 1/2' High
DSP: Sound Devices 722>Sound Forge 10.0>CD Wave>flac(16)
ID3 Tagged In Foobar 2000
Recorded By: Z-Man
Seeded By: Z-Man
A Team Dirty South Recording

Disc I 

01 Greeting By 
02 Chameleon
03 ?
04 *?
05 *?
06 #Cumbia
07 #?
08 #I Can See Clearly Noe The Rain Is Gone
09 #?
10 #? >
11 #Hey Jude

* With Angel De Venezuela On Vocals
# With Angel De Venezuela On Percussion

Andrew McCue - Trombone
Derek Banach - Trumpet
Ryan - Bass 
Jose - Timbales
? - Keyboards
? - Drums 
? - Vocals
? - Vocals

What a wonderful set of music I captured here. I did not know any of these Denver musicians. I assigned names 
where I was able to. They had a whole bunch of folks dancing away!

remezda2021-09-07d01t01.flac:34969dd453f0d61baf5da310d6b0c0ab
remezda2021-09-07d01t02.flac:87370e0acde676584ee4dc55811b98b1
remezda2021-09-07d01t03.flac:0c5543ecac08a46666858c1428751442
remezda2021-09-07d01t04.flac:f847f2bac2f84162720add274a193490
remezda2021-09-07d01t05.flac:0c4f7a4b804b69a08a13c42e72b61772
remezda2021-09-07d01t06.flac:443100cbbbe5da42688421b20eb8defb
remezda2021-09-07d01t07.flac:4e9c34a669564288f0f4f42ccd0886be
remezda2021-09-07d01t08.flac:e6f7b0f281780aee64f7475907108721
remezda2021-09-07d01t09.flac:881db358890af271ecaaf8bbae7ffb24
remezda2021-09-07d01t10.flac:2a15b06a08548754be5787878a6bc020
remezda2021-09-07d01t11.flac:5b86887f08821076a4374ccc7e97597f

   length     expanded size    cdr  WAVE problems  fmt   ratio  filename
     0:41.10        7255964 B   ---   --   ---xx   flac  0.2591  remezda2021-09-07d01t01.flac
     9:21.39       99052172 B   ---   --   ---xx   flac  0.4762  remezda2021-09-07d01t02.flac
     6:38.36       70291916 B   ---   --   ---xx   flac  0.4234  remezda2021-09-07d01t03.flac
     6:33.22       69376988 B   ---   --   ---xx   flac  0.4433  remezda2021-09-07d01t04.flac
     7:07.73       75494540 B   ---   --   ---xx   flac  0.4959  remezda2021-09-07d01t05.flac
     4:54.01       51863996 B   ---   --   ---xx   flac  0.4940  remezda2021-09-07d01t06.flac
     6:39.70       70548284 B   ---   --   ---xx   flac  0.4316  remezda2021-09-07d01t07.flac
     3:58.05       41995004 B   ---   --   ---xx   flac  0.4038  remezda2021-09-07d01t08.flac
     6:03.10       64056764 B   ---   --   ---xx   flac  0.5019  remezda2021-09-07d01t09.flac
     4:05.12       43246268 B   ---   --   ---xx   flac  0.4829  remezda2021-09-07d01t10.flac
     5:11.59       54999212 B   ---   --   ---xx   flac  0.4656  remezda2021-09-07d01t11.flac
    61:14.37      648181108 B                            0.4608  (11 files)




More information about the bittorrent mailing list