[bittorrent] The Sweet Lillies Unplugged Jam Beyond The Mountain Brewing Company Boulder, Colorado 9/8/2021 (Z-Man Schoeps CCM4V'S FOB)

Automated Mailer noreply-bt.e at etree.org
Sun Sep 19 16:55:34 UTC 2021


Band:           Other
Torrent Name:   The Sweet Lillies Unplugged Jam Beyond The Mountain Brewing Company Boulder, Colorado 9/8/2021 (Z-Man Schoeps CCM4V'S FOB)
Uploaded by:    zmanatl
DB Link:        
Details:        http://bt.etree.org/details.php?id=613904

Contact the seeder at http://db.etree.org/zmanatl

If the link to this show does not work, it was probably removed for
being non-trade-friendly.

Description / text file:
-------------------------
The Sweet Lillies Unplugged Jam
Beyond The Mountain Brewing Company
Boulder, Colorado
9/8/2021 

Source: Schoeps CCM4V'S>Lunatec V2>Sound Devices 722 (24/44.1)
FOB/DFC/KFC/ZFC/AARP Stage Lip, 5 1/2' High
DSP: Sound Devices 722>Sound Forge 10.0>CD Wave>flac(16)
ID3 Tagged In Foobar 2000
Recorded By: Z-Man
Seeded By: Z-Man
A Team Dirty South Recording

Disc I 

01 California Stars
02 I've Just Seen The Rock Of Ages 
03 Old Copper Kettle
04 Folsom Prison Blues >
05 Pinball Wizard
06 ?
07 White Freight-Liner Blues
08 Workin' On A Building

Disc II 

01 Rabbit In A Log
02 Angelina Baker
03 ?
04 On And On
05 I Am A Pilgrim
06 Nellie Cain
07 Glendale Train

* I Attended The Sweet Lillies Weekly Pick At BTMBC. They were all gathered out in the parking lot under a small tent.
It was Totally unplugged. I never got the names of all the participants, but listed a few that I met. This was similar 
to the pick we do locally at the Hunt House. We start and go around the circle with each person choosing a song and the 
key to play it in. These locals are very privlidged to have the Sweet Lillies do this weekly jam with them! I Had A Great time! 

Julie Gussaroff - Bass And Vocals
Becca Bisque - Viola And Vocals
Kyler Brown - Banjo
Scott Young - Banjo
Mike Jackson - Banjo
? - Guitar And Vocals
? - Dobro And Vocals
? - Fiddle, Guitar, And Vocals
? - Guitar
Skip - Mandolin
? - Mandolin
? - Mandolin
? - Banjo

sweet2021-09-08d01t01.flac:4df9205c460a4b5cbe9ddcca63728911
sweet2021-09-08d01t02.flac:78115f8a045d0a799d7a99e55eee516a
sweet2021-09-08d01t03.flac:355077139607a2616f8b813a6072e856
sweet2021-09-08d01t04.flac:920b2f8fddeac9191bedcc2dbf7aac1a
sweet2021-09-08d01t05.flac:1fe5f82136394ec75ef974dfe1d69f26
sweet2021-09-08d01t06.flac:bccf2e0937888791d2151c781cf36687
sweet2021-09-08d01t07.flac:1610b499e175022d216700b7a21a9885
sweet2021-09-08d01t08.flac:dc9d76cca79faa63081cb88060fe6cda
sweet2021-09-08d02t01.flac:7e08aec03eba5842cc665342e9e0b5a6
sweet2021-09-08d02t02.flac:4359a01df497389693e9f12dabf2a8b5
sweet2021-09-08d02t03.flac:f54a22fe1eff8bfa05963cdc6c5a1272
sweet2021-09-08d02t04.flac:6c2131bb961a2bd88abfd75308095c88
sweet2021-09-08d02t05.flac:1f7a09db95638ad425df6394502e9a5e
sweet2021-09-08d02t06.flac:12c5d06a584efe4bfb4cba895143d1df
sweet2021-09-08d02t07.flac:d855160c0ebe190960f2606c868ee4f6

 length     expanded size    cdr  WAVE problems  fmt   ratio  filename
     6:34.32       69576908 B   ---   --   ---xx   flac  0.4468  sweet2021-09-08d01t01.flac
     8:46.59       92925212 B   ---   --   ---xx   flac  0.4378  sweet2021-09-08d01t02.flac
     8:19.30       88094204 B   ---   --   ---xx   flac  0.4386  sweet2021-09-08d01t03.flac
     4:29.48       47564540 B   ---   --   ---xx   flac  0.4661  sweet2021-09-08d01t04.flac
     2:40.03       28231100 B   ---   --   ---xx   flac  0.4497  sweet2021-09-08d01t05.flac
     5:24.61       57297116 B   ---   --   ---xx   flac  0.4326  sweet2021-09-08d01t06.flac
     7:26.65       78827324 B   ---   --   ---xx   flac  0.4506  sweet2021-09-08d01t07.flac
     7:29.66       79358876 B   ---   --   ---xx   flac  0.4633  sweet2021-09-08d01t08.flac
     5:41.60       60293564 B   ---   --   ---xx   flac  0.4423  sweet2021-09-08d02t01.flac
     6:59.19       73956332 B   ---   --   ---xx   flac  0.4590  sweet2021-09-08d02t02.flac
     6:19.06       66869756 B   ---   --   ---xx   flac  0.4486  sweet2021-09-08d02t03.flac
     7:26.10       78697964 B   ---   --   ---xx   flac  0.4505  sweet2021-09-08d02t04.flac
     7:23.56       78276956 B   ---   --   ---xx   flac  0.4168  sweet2021-09-08d02t05.flac
     7:25.58       78634460 B   ---   --   ---xx   flac  0.4468  sweet2021-09-08d02t06.flac
    11:39.74      123477692 B   ---   --   ---xx   flac  0.4525  sweet2021-09-08d02t07.flac
   104:07.47     1102082004 B                            0.4465  (15 files)




More information about the bittorrent mailing list