[bittorrent] The Dirty Guvnahs Candler Park Music Festival Candler Park Atlanta, Georgia 9/11/2021 (Z-Man Schoeps CCM4V'S FOB)

Automated Mailer noreply-bt.e at etree.org
Sun Sep 19 05:25:20 UTC 2021


Band:           Other
Torrent Name:   The Dirty Guvnahs Candler Park Music Festival Candler Park Atlanta, Georgia 9/11/2021 (Z-Man Schoeps CCM4V'S FOB)
Uploaded by:    zmanatl
DB Link:        
Details:        http://bt.etree.org/details.php?id=613902

Contact the seeder at http://db.etree.org/zmanatl

If the link to this show does not work, it was probably removed for
being non-trade-friendly.

Description / text file:
-------------------------
The Dirty Guvnahs
Candler Park Music Festival
Candler Park
Atlanta, Georgia
9/11/2021 

Source: Schoeps CCM4V'S>Lunatec V2>Sound Devices 722 (24/44.1)
FOB/DFC/KFC/ZFC/AARP 69' From Stage, 8' High
DSP: Sound Devices 722>Sound Forge 10.0>CD Wave>flac(16)
ID3 Tagged In Foobar 2000
Recorded By: Z-Man
Seeded By: Z-Man
A Team Dirty South Recording

Disc I 

01 Introduction/Greeting
02 *It's A Good Night Down In Georgia
03 ?
04 ?
05 Till Death Do Us Part >
06 ?
07 ?
08 Whippin' Post
09 ?
10 ?
11 Don't Forget Where You Came From
12 ?
13 ?
14 ?
15 ? >
16 Satisfaction
17 Outro

* First Time Played

thedirty2021-09-11d01t01.flac:e2c80586d4f52c2a7504924d329a3789
thedirty2021-09-11d01t02.flac:341c8c353eabfdeace9b82bdfa14a909
thedirty2021-09-11d01t03.flac:e54837abb3e2eab740ed8dc5cbfb57ee
thedirty2021-09-11d01t04.flac:9022f1b906529e4e66389d7cbd295cd9
thedirty2021-09-11d01t05.flac:0e2a5a26e17bd86026c123cf0287187f
thedirty2021-09-11d01t06.flac:41bdc3bd6dd5aec8f877a6aaba5e120c
thedirty2021-09-11d01t07.flac:90589ecc62a48cf5d2f14db8c16f4fa1
thedirty2021-09-11d01t08.flac:c7edb78e9d47df501fbed0387820e51d
thedirty2021-09-11d01t09.flac:09479a6f72547a5b1b532bf4a9074a58
thedirty2021-09-11d01t10.flac:233fc8eb0fb6c95f46b4bc8521029208
thedirty2021-09-11d01t11.flac:488f7bf5433b889d31742bc9d5fe73ba
thedirty2021-09-11d01t12.flac:eaf5eb13f68b53127957da6344e14d21
thedirty2021-09-11d01t13.flac:c3712981b6ac31e4093f7886b5042872
thedirty2021-09-11d01t14.flac:58de89db33e2ad7c26ea52d835b86c75
thedirty2021-09-11d01t15.flac:5f840a6471d393c2f74ef8c5dcb72960
thedirty2021-09-11d01t16.flac:19378925ac2acbb8a20e3e6cfc7eea56
thedirty2021-09-11d01t17.flac:1a788b746082a97b6da503aa3706e470

length     expanded size    cdr  WAVE problems  fmt   ratio  filename
     2:03.47       21807788 B   ---   --   ---xx   flac  0.3407  thedirty2021-09-11d01t01.flac
     4:42.48       49857740 B   ---   --   ---xx   flac  0.4774  thedirty2021-09-11d01t02.flac
     4:29.00       47451644 B   ---   --   ---xx   flac  0.4496  thedirty2021-09-11d01t03.flac
     3:59.26       42220796 B   ---   --   ---xx   flac  0.4639  thedirty2021-09-11d01t04.flac
     3:03.54       32408252 B   ---   --   ---xx   flac  0.4201  thedirty2021-09-11d01t05.flac
     9:11.48       97309340 B   ---   --   ---xx   flac  0.5049  thedirty2021-09-11d01t06.flac
     3:50.00       40572044 B   ---   --   ---xx   flac  0.4945  thedirty2021-09-11d01t07.flac
     9:29.69      100533932 B   ---   --   ---xx   flac  0.5014  thedirty2021-09-11d01t08.flac
     3:10.41       33612476 B   ---   --   ---xx   flac  0.4381  thedirty2021-09-11d01t09.flac
     3:47.64       40193372 B   ---   --   ---xx   flac  0.4758  thedirty2021-09-11d01t10.flac
     4:28.56       47406956 B   ---   --   ---xx   flac  0.4867  thedirty2021-09-11d01t11.flac
     5:12.12       55065068 B   ---   --   ---xx   flac  0.4965  thedirty2021-09-11d01t12.flac
     5:57.64       63125372 B   ---   --   ---xx   flac  0.5041  thedirty2021-09-11d01t13.flac
     3:44.54       39640652 B   ---   --   ---xx   flac  0.5293  thedirty2021-09-11d01t14.flac
     5:39.25       59858444 B   ---   --   ---xx   flac  0.5273  thedirty2021-09-11d01t15.flac
     7:01.33       74342060 B   ---   --   ---xx   flac  0.5230  thedirty2021-09-11d01t16.flac
     1:13.22       12928988 B   ---   --   ---xx   flac  0.3797  thedirty2021-09-11d01t17.flac
    81:05.63      858334924 B                            0.4867  (17 files)





More information about the bittorrent mailing list