[bittorrent] JG+MS 5/20/71 [153263] - SBD - Remaster, Keystone Korner 2496 (GEMS)

Automated Mailer noreply-bt.e at etree.org
Sat Sep 18 20:30:31 UTC 2021


Band:           Garcia
Torrent Name:   JG+MS 5/20/71 [153263] - SBD - Remaster, Keystone Korner 2496 (GEMS)
Uploaded by:    grv68
DB Link:        
Details:        http://bt.etree.org/details.php?id=613900

Contact the seeder at http://db.etree.org/grv68

If the link to this show does not work, it was probably removed for
being non-trade-friendly.

Description / text file:
-------------------------
Jerry Garcia and Merl Saunders
Keystone Korner,
San Francisco, CA
Thursday, May 20, 1971

Recording Info: MR@ 7 1/2 ips > Reel (owned by Jerry Garcia) > Reel(made and owned by Will Boswell) @ 7 1/2 ips > 2496 PCM WAV [by  Matt Smith]
  
Mastering Info: Samplitude Pro X5 > Flac24 (fresh 2021 mastering included phase correction, hum removal, channel flip to match 1971-05-21 official release, etc.)

Mastering by Jim Blackwood 
Speed Correction by Jason Chastain
Track, FLAC and Pack by Steve Gravel

Originally aired on 91.3 FM KXCI Tucson on Dead Air
Hosted by Jim Blackwood and Jamie Waddell on August 29, 2021
https://spinitron.com/KXCI/pl/14000426/Dead-Air
Shared to www.shnflac.net in September, 2021

FLAC Level 8 at 24bit 96kHz

01. Save Mother Earth [with spaced out end jam]
02. Untitled Blues Jam
03. Little Bit of Righteousness >
04. Summertime Jam (cuts) 

**gems**

    length     expanded size    cdr  WAVE problems  fmt   ratio  filename
    43:26.327    1501244468 B   cxx   --   ---xx   flac  0.5855  01 Save Mother Earth [with spaced out end jam].flac
     8:22.399     289381790 B   cxx   --   ---xx   flac  0.6032  02 Untitled Blues Jam.flac
    23:58.466     828556226 B   cxx   --   ---xx   flac  0.5977  03 Little Bit of Righteousness.flac
     4:44.079     163629788 B   cxx   --   ---xx   flac  0.5920  04 Summertime Jam.flac
    80:31.271    2782812272 B                            0.5913  (4 files)



More information about the bittorrent mailing list