[bittorrent] The Hedonistas Candler Park Music Festival Candler Park Atlanta, Georgia 9/11/2021 (Z-Man Schoeps CCM4V'S FOB)

Automated Mailer noreply-bt.e at etree.org
Sat Sep 18 19:14:35 UTC 2021


Band:           Other
Torrent Name:   The Hedonistas Candler Park Music Festival Candler Park Atlanta, Georgia 9/11/2021 (Z-Man Schoeps CCM4V'S FOB)
Uploaded by:    zmanatl
DB Link:        
Details:        http://bt.etree.org/details.php?id=613897

Contact the seeder at http://db.etree.org/zmanatl

If the link to this show does not work, it was probably removed for
being non-trade-friendly.

Description / text file:
-------------------------
The Hedonistas
Candler Park Music Festival
Candler Park
Atlanta, Georgia
9/11/2021 

Source: Schoeps CCM4V'S>Lunatec V2>Sound Devices 722 (24/44.1)
FOB/DFC/KFC/ZFC/AARP 69' From Stage, 8' High
DSP: Sound Devices 722>Sound Forge 10.0>CD Wave>flac(16)
ID3 Tagged In Foobar 2000
Recorded By: Z-Man
Seeded By: Z-Man
A Team Dirty South Recording

Disc I 

01 Introduction/Greeting
02 Talkabout
03 Move Out Groove Out
04 Just Right
05 Oh My My
06 Sandbox
07 Figure It Out
08 Spanish Lava Lamp
09 *Proud Mary
10 The Way Things Were
11 Lucky Buddha Part II
12 Outro

* With Susie Jones On Vocals

thehedonistas2021-09-11d01t01.flac:6b82a508aaf00ffbb72b026eae63f1f0
thehedonistas2021-09-11d01t02.flac:99b8df7447fbeb2863fc43e7de1af698
thehedonistas2021-09-11d01t03.flac:54c052064edec2829855eede5fcf9fd1
thehedonistas2021-09-11d01t04.flac:ee006ff52b723c78b36838cb868f93a0
thehedonistas2021-09-11d01t05.flac:544f5079dd280c757cb12043fe52dbbb
thehedonistas2021-09-11d01t06.flac:81960017f473332c68249bf90cd1fab3
thehedonistas2021-09-11d01t07.flac:d5e38ca0a7108c6226d3b6e9c1b4c1ec
thehedonistas2021-09-11d01t08.flac:69b02c2458527e08cca312bb7e5d0873
thehedonistas2021-09-11d01t09.flac:1e58540d2964a819558349f1fbc992b0
thehedonistas2021-09-11d01t10.flac:c589da52a97beeec402a9255c52c00a8
thehedonistas2021-09-11d01t11.flac:e72c1d5a1e6d9caa8867d1b37e825a9d
thehedonistas2021-09-11d01t12.flac:dc0278005b86283d30c7291757dfa315

 length     expanded size    cdr  WAVE problems  fmt   ratio  filename
     0:55.42        9800828 B   ---   --   ---xx   flac  0.3099  thehedonistas2021-09-11d01t01.flac
     6:08.38       65004620 B   ---   --   ---xx   flac  0.4511  thehedonistas2021-09-11d01t02.flac
     7:25.00       78498044 B   ---   --   ---xx   flac  0.4360  thehedonistas2021-09-11d01t03.flac
     5:34.31       58990556 B   ---   --   ---xx   flac  0.4102  thehedonistas2021-09-11d01t04.flac
     4:36.55       48815804 B   ---   --   ---xx   flac  0.4340  thehedonistas2021-09-11d01t05.flac
     3:27.39       36606572 B   ---   --   ---xx   flac  0.4255  thehedonistas2021-09-11d01t06.flac
     5:36.13       59301020 B   ---   --   ---xx   flac  0.4420  thehedonistas2021-09-11d01t07.flac
     7:35.66       80417276 B   ---   --   ---xx   flac  0.4556  thehedonistas2021-09-11d01t08.flac
     7:02.23       74494940 B   ---   --   ---xx   flac  0.4441  thehedonistas2021-09-11d01t09.flac
     5:47.03       61217900 B   ---   --   ---xx   flac  0.4403  thehedonistas2021-09-11d01t10.flac
     7:06.39       75238172 B   ---   --   ---xx   flac  0.4531  thehedonistas2021-09-11d01t11.flac
     1:31.68       16212380 B   ---   --   ---xx   flac  0.3947  thehedonistas2021-09-11d01t12.flac
    62:47.42      664598112 B                            0.4377  (12 files)






More information about the bittorrent mailing list