[bittorrent] Ripe Candler Park Music Festival Candler Park Atlanta, Georgia 9/10/2021 (Z-MAn Schoeps CCM4V'S FOB)

Automated Mailer noreply-bt.e at etree.org
Sat Sep 18 16:28:39 UTC 2021


Band:           Other
Torrent Name:   Ripe Candler Park Music Festival Candler Park Atlanta, Georgia 9/10/2021 (Z-MAn Schoeps CCM4V'S FOB)
Uploaded by:    zmanatl
DB Link:        
Details:        http://bt.etree.org/details.php?id=613895

Contact the seeder at http://db.etree.org/zmanatl

If the link to this show does not work, it was probably removed for
being non-trade-friendly.

Description / text file:
-------------------------
Ripe
Candler Park Music Festival
Candler Park
Atlanta, Georgia
9/10/2021 

Source: Schoeps CCM4V'S>Lunatec V2>Sound Devices 722 (24/44.1)
FOB/DFC/KFC/ZFC/AARP 69' From Stage, 8' High
DSP: Sound Devices 722>Sound Forge 10.0>CD Wave>flac(16)
ID3 Tagged In Foobar 2000
Recorded By: Z-Man
Seeded By: Z-Man
A Team Dirty South Recording

Disc I 

01 Introduction/Greeting
02 Beta Male >
03 Stanky
04 Five In The Morning
05 Lola 
06 Passerby
07 ?
08 Ex-Life >
09 Backup
10 ?
11 Good For You
12 Talk To The Moon
13 Downward
14 Banter
15 Follow Through >
16 Little Lighter
17 Flipside
18 Outro

Robbie Wulfson - Vocals
Tory Geismar - Guitar
Jon Becker - Guitar
Nadav Shapira - Bass
Josh Shpak - Trumpet
Calvin Barthel - Trombone
Sampson Hellerman - Drums

ripe2021-09-10d01t01.flac:428cdfc753f9a74e33384ac0cde34f49
ripe2021-09-10d01t02.flac:32dd97204670750b06b1ff43c6ae879f
ripe2021-09-10d01t03.flac:054388d9e86e34c627d4231bf72ec3b0
ripe2021-09-10d01t04.flac:f1222d03104d4713db5c2d04e1a40eed
ripe2021-09-10d01t05.flac:0767cccaa013c88645b7e4cc38555dfa
ripe2021-09-10d01t06.flac:d331feb406218c1935d767c63808688b
ripe2021-09-10d01t07.flac:e563e89cbb66957e6e45449ffb5dc395
ripe2021-09-10d01t08.flac:2e3cdc3cb4e61a4a32279eaeeca3c4a8
ripe2021-09-10d01t09.flac:81c4c11eae474e7f5121c32340342f1f
ripe2021-09-10d01t10.flac:8efb437cebbd3532fa9f77b5972f75bc
ripe2021-09-10d01t11.flac:41b5ca345dffff12593366bf2083e378
ripe2021-09-10d01t12.flac:ddc5f7704618b3e63a4e3bd69cc6505b
ripe2021-09-10d01t13.flac:66f072dfa95bcbbcdf744ac1244bdd63
ripe2021-09-10d01t14.flac:c729fb359d1a327c9ada51b8427e2834
ripe2021-09-10d01t15.flac:49ecbf517dc0bf0fb40637da2a64a557
ripe2021-09-10d01t16.flac:a744aa32b209332e0edf53d6f6fe4a3b
ripe2021-09-10d01t17.flac:4161460f3f58bdf933692769dfdc5738
ripe2021-09-10d01t18.flac:800fd553980a699ded49bb02d47aba67

 length     expanded size    cdr  WAVE problems  fmt   ratio  filename
     1:59.63       21139820 B   ---   --   ---xx   flac  0.3920  ripe2021-09-10d01t01.flac
     3:34.11       37775516 B   ---   --   ---xx   flac  0.4868  ripe2021-09-10d01t02.flac
     7:22.19       78013532 B   ---   --   ---xx   flac  0.4837  ripe2021-09-10d01t03.flac
     3:09.26       33400796 B   ---   --   ---xx   flac  0.4607  ripe2021-09-10d01t04.flac
     3:52.04       40934252 B   ---   --   ---xx   flac  0.4730  ripe2021-09-10d01t05.flac
     4:48.31       50876156 B   ---   --   ---xx   flac  0.4298  ripe2021-09-10d01t06.flac
     5:43.41       60601676 B   ---   --   ---xx   flac  0.4371  ripe2021-09-10d01t07.flac
     7:38.38       80880620 B   ---   --   ---xx   flac  0.4495  ripe2021-09-10d01t08.flac
     4:22.47       46327388 B   ---   --   ---xx   flac  0.4487  ripe2021-09-10d01t09.flac
     4:48.32       50878508 B   ---   --   ---xx   flac  0.4515  ripe2021-09-10d01t10.flac
     3:45.03       39697100 B   ---   --   ---xx   flac  0.4424  ripe2021-09-10d01t11.flac
     4:12.23       44506940 B   ---   --   ---xx   flac  0.4546  ripe2021-09-10d01t12.flac
     3:54.36       41362316 B   ---   --   ---xx   flac  0.4536  ripe2021-09-10d01t13.flac
     0:56.23        9932540 B   ---   --   ---xx   flac  0.3825  ripe2021-09-10d01t14.flac
     4:53.22       51736988 B   ---   --   ---xx   flac  0.4838  ripe2021-09-10d01t15.flac
     4:30.63       47776220 B   ---   --   ---xx   flac  0.4841  ripe2021-09-10d01t16.flac
     4:08.10       43770764 B   ---   --   ---xx   flac  0.4824  ripe2021-09-10d01t17.flac
     1:46.68       18858380 B   ---   --   ---xx   flac  0.3901  ripe2021-09-10d01t18.flac
    75:26.35      798469512 B                            0.4567  (18 files)




More information about the bittorrent mailing list