[bittorrent] The Vegabonds Candler Park Music Festival Candler Park Atlanta, Georgia 9/10/2021 (Z-Man Schoeps CCM4V'S FOB)

Automated Mailer noreply-bt.e at etree.org
Sat Sep 18 14:32:55 UTC 2021


Band:           Other
Torrent Name:   The Vegabonds Candler Park Music Festival Candler Park Atlanta, Georgia 9/10/2021 (Z-Man Schoeps CCM4V'S FOB)
Uploaded by:    zmanatl
DB Link:        
Details:        http://bt.etree.org/details.php?id=613894

Contact the seeder at http://db.etree.org/zmanatl

If the link to this show does not work, it was probably removed for
being non-trade-friendly.

Description / text file:
-------------------------
The Vegabonds
Candler Park Music Festival
Candler Park
Atlanta, Georgia
9/10/2021 

Source: Schoeps CCM4V'S>Lunatec V2>Sound Devices 722 (24/44.1)
FOB/DFC/KFC/ZFC/AARP 69' From Stage, 8' High
DSP: Sound Devices 722>Sound Forge 10.0>CD Wave>flac(16)
ID3 Tagged In Foobar 2000
Recorded By: Z-Man
Seeded By: Z-Man
A Team Dirty South Recording

Disc I 

01 Introduction
02 Juke N' Jive
03 Used To Go
04 Oh My Lord
05 Burnout
06 Partyin' With Strangers
07 Heartache And A Memory
08 Can't Deal
09 Feels Right
10 Colorado Evergreen
11 Travelin' Man
12 Georgia Fire
13 Shaky Hands >
14 Everything I Need 
15 Outro

Richard Forehand - Guitar
Paul "Big Bear" Bruens - Bass
Beau Coopert - Keyboards And Vocals
Brian "Freedom Eagle" Harris - Drums
Daniel Allen- Guitar And Vocals 

vegabonds2021-09-10d01t01.flac:3b4fc34259902bc56869d0e00d19366e
vegabonds2021-09-10d01t02.flac:abd794331a1b21f4e732fad45a47919a
vegabonds2021-09-10d01t03.flac:5fbc6917cc804bc755a171e9a29ff661
vegabonds2021-09-10d01t04.flac:0b4d2a85a75e47aef1c69c62da20f81e
vegabonds2021-09-10d01t05.flac:b2fac852a52ba6733eb36f58834a07b2
vegabonds2021-09-10d01t06.flac:210eabf270eda58056d55439dd3d8b49
vegabonds2021-09-10d01t07.flac:49bbc0d14bbfe288b66938ad029e7a76
vegabonds2021-09-10d01t08.flac:9470d0d1f0baf2f3fd9917b34961d375
vegabonds2021-09-10d01t09.flac:7adbadd92b8817cc217a182edd49860a
vegabonds2021-09-10d01t10.flac:5431cac312baadcd3e451bc1aefd8f7a
vegabonds2021-09-10d01t11.flac:c4fe8d9879c72fddf1b28f6becd1b056
vegabonds2021-09-10d01t12.flac:ae565594aa4ada6683cab2a2bbf3711e
vegabonds2021-09-10d01t13.flac:c108df4d85d80bdeb2bef451241ba0dd
vegabonds2021-09-10d01t14.flac:2a4fd3decb2056ca3bd929739fe50f37
vegabonds2021-09-10d01t15.flac:d80d9374501e4f0b879a3ea872f20e28

 length     expanded size    cdr  WAVE problems  fmt   ratio  filename
     0:53.20        9396284 B   ---   --   ---xx   flac  0.2950  vegabonds2021-09-10d01t01.flac
     3:37.55       38408204 B   ---   --   ---xx   flac  0.4061  vegabonds2021-09-10d01t02.flac
     5:22.72       56970188 B   ---   --   ---xx   flac  0.4523  vegabonds2021-09-10d01t03.flac
     5:34.68       59077580 B   ---   --   ---xx   flac  0.4668  vegabonds2021-09-10d01t04.flac
     3:48.38       40308620 B   ---   --   ---xx   flac  0.4306  vegabonds2021-09-10d01t05.flac
     5:26.42       57605228 B   ---   --   ---xx   flac  0.4182  vegabonds2021-09-10d01t06.flac
     2:48.22       29686988 B   ---   --   ---xx   flac  0.4388  vegabonds2021-09-10d01t07.flac
     3:05.51       32753996 B   ---   --   ---xx   flac  0.4372  vegabonds2021-09-10d01t08.flac
     4:43.58       50057660 B   ---   --   ---xx   flac  0.4031  vegabonds2021-09-10d01t09.flac
     3:50.33       40649660 B   ---   --   ---xx   flac  0.4818  vegabonds2021-09-10d01t10.flac
     4:12.36       44537516 B   ---   --   ---xx   flac  0.3924  vegabonds2021-09-10d01t11.flac
     4:12.03       44459900 B   ---   --   ---xx   flac  0.5071  vegabonds2021-09-10d01t12.flac
     5:42.53       60453500 B   ---   --   ---xx   flac  0.4500  vegabonds2021-09-10d01t13.flac
     8:36.71       91189436 B   ---   --   ---xx   flac  0.4799  vegabonds2021-09-10d01t14.flac
     1:21.53       14413100 B   ---   --   ---xx   flac  0.3604  vegabonds2021-09-10d01t15.flac
    63:18.00      669967860 B                            0.4425  (15 files)




More information about the bittorrent mailing list