[bittorrent] Barry Richman Blues Jam The Rusty Barrel Marietta, Georgia 9/16/2021 (Z-Man Schoeps CCM4V'S FOB)

Automated Mailer noreply-bt.e at etree.org
Sat Sep 18 03:48:24 UTC 2021


Band:           Other
Torrent Name:   Barry Richman Blues Jam The Rusty Barrel Marietta, Georgia 9/16/2021 (Z-Man Schoeps CCM4V'S FOB)
Uploaded by:    zmanatl
DB Link:        
Details:        http://bt.etree.org/details.php?id=613886

Contact the seeder at http://db.etree.org/zmanatl

If the link to this show does not work, it was probably removed for
being non-trade-friendly.

Description / text file:
-------------------------
Barry Richman Blues Jam
The Rusty Barrel
Marietta, Georgia
9/16/2021 

Source: Schoeps CCM4V'S>Lunatec V2>Sound Devices 722 (24/44.1)
FOB/DFC/KFC/ZFC/AARP 6' From Stage, 6 1/2' High
DSP: Sound Devices 722>Sound Forge 10.0>CD Wave>flac(16)
ID3 Tagged In Foobar 2000
Recorded By: Z-Man
Seeded By: Z-Man
A Team Dirty South Recording

Disc I 

01 Greeting 
02 Instrumental
03 The Letter
04 Isn't It A Pity 
05 Giant Tacos
06 Banter/Outro

Barry Richman - Guitar 
Dana McCarthy - Bass And Vocals
Charlie Korch - Drums And Vocals

barry2021-09-16d01t01.flac:5b0f5791a5d8be7d897ec6d5bf439508
barry2021-09-16d01t02.flac:0ac4b6123eab04ffdabdaa739c17da4b
barry2021-09-16d01t03.flac:e8639bc5a47877fd23a74a6473b9f315
barry2021-09-16d01t04.flac:1519164895c4a76d5c792286968830e0
barry2021-09-16d01t05.flac:ca326d2979f852c8fa45db4da2cf80e7
barry2021-09-16d01t06.flac:93a9149c180e066c13626bdb582b70ea

length     expanded size    cdr  WAVE problems  fmt   ratio  filename
     0:38.67        6860828 B   ---   --   ---xx   flac  0.2806  barry2021-09-16d01t01.flac
     6:43.37       71176268 B   ---   --   ---xx   flac  0.5734  barry2021-09-16d01t02.flac
     5:02.42       53371628 B   ---   --   ---xx   flac  0.5540  barry2021-09-16d01t03.flac
     6:26.36       68175116 B   ---   --   ---xx   flac  0.5065  barry2021-09-16d01t04.flac
     7:18.63       77411420 B   ---   --   ---xx   flac  0.6010  barry2021-09-16d01t05.flac
     1:58.08       20834060 B   ---   --   ---xx   flac  0.3343  barry2021-09-16d01t06.flac
    28:08.28      297829320 B                            0.5383  (6 files)





More information about the bittorrent mailing list