[bittorrent] Voodoo Visionary Candler Park Music Festival Candler Park Atlanta, Georgia 9/10/2021 (Z-Man Schoeps CCM4V'S FOB)

Automated Mailer noreply-bt.e at etree.org
Fri Sep 17 21:30:21 UTC 2021


Band:           Other
Torrent Name:   Voodoo Visionary Candler Park Music Festival Candler Park Atlanta, Georgia 9/10/2021 (Z-Man Schoeps CCM4V'S FOB)
Uploaded by:    zmanatl
DB Link:        
Details:        http://bt.etree.org/details.php?id=613884

Contact the seeder at http://db.etree.org/zmanatl

If the link to this show does not work, it was probably removed for
being non-trade-friendly.

Description / text file:
-------------------------
Voodoo Visionary
Candler Park Music Festival
Candler Park
Atlanta, Georgia
9/10/2021 

Source: Schoeps CCM4V'S>Lunatec V2>Sound Devices 722 (24/44.1)
FOB/DFC/KFC/ZFC/AARP 69' From Stage, 8' High
DSP: Sound Devices 722>Sound Forge 10.0>CD Wave>flac(16)
ID3 Tagged In Foobar 2000
Recorded By: Z-Man
Seeded By: Z-Man
A Team Dirty South Recording

Disc I 

01 Hero On The Horizon >
02 The Heathen >
03 Salt
04 True Colors 
05 Sip Of The Sunshine 
06 Cold Shallow Moon >
07 Hero On The Horizon Reprise
08 Outro

Mike Wilson - Guitar
Trent Gilson - Bass
Dennis Dowd - Keyboards And Vocals
Mac Schmitz - Drums
Jose Rivera - Percussion
Austin Cobb - Vocals

voodoo2021-09-10d01t01.flac:eac9d884449a5a362ddcfd7481be523d
voodoo2021-09-10d01t02.flac:f09cdf6b5e532326ca6cb9c5866faf70//
voodoo2021-09-10d01t03.flac:22b389be7f88f106adf8d72348b89a03
voodoo2021-09-10d01t04.flac:ade7bfb12910fddab1dfa054dfee8510
voodoo2021-09-10d01t05.flac:e798dd11cac7bca403fcc8bf88b5f897
voodoo2021-09-10d01t06.flac:48be3677465a0f759107353af7ac6244
voodoo2021-09-10d01t07.flac:9901da0f8664540e745d0074071c5bac
voodoo2021-09-10d01t08.flac:473c0ad268973e7932dd6b9fa1a012e1

 length     expanded size    cdr  WAVE problems  fmt   ratio  filename
     2:18.14       24376172 B   ---   --   ---xx   flac  0.5225  voodoo2021-09-10d01t01.flac
    10:59.25      116306444 B   ---   --   ---xx   flac  0.4745  voodoo2021-09-10d01t02.flac
    11:43.34      124089212 B   ---   --   ---xx   flac  0.4646  voodoo2021-09-10d01t03.flac
    12:02.47      127471388 B   ---   --   ---xx   flac  0.4868  voodoo2021-09-10d01t04.flac
     7:39.52       81089948 B   ---   --   ---xx   flac  0.4714  voodoo2021-09-10d01t05.flac
     8:31.20       90187484 B   ---   --   ---xx   flac  0.4877  voodoo2021-09-10d01t06.flac
     0:36.32        6425708 B   ---   --   ---xx   flac  0.3918  voodoo2021-09-10d01t07.flac
     1:11.48       12637340 B   ---   --   ---xx   flac  0.3550  voodoo2021-09-10d01t08.flac
    55:02.47      582583696 B                            0.4752  (8 files)




More information about the bittorrent mailing list